+ ตอบกลับกระทู้
สรุปผลการค้นหา 1 ถึง 2 จากทั้งหมด 2
  1. #1
    Administrators รูปส่วนตัว Duckload.us
    สมัครเมื่อ
    Dec 2010
    โพสต์
    125,109
    Thanks
    7
    Thanked 130,096 Times in 57,692 Posts

    Thumbs up [เกาหลี]-[VIU] Samjin Company English Class (2020)-WEB-DL.AC-3.1080p. [Modified]-[พากย์เกาหลี บรรยายไทย-อังกฤษ]




    อีจายอง (โกอาซอง), จองยูนา (อีซม), ชิมโบรัม (พัคฮเยซู) ทำงานอยู่ในบริษัท Samjin และแล้ววันนึงทางบริษัทก็ประกาศว่าจะเลื่อนขั้นพนักง านให้ โดยจะต้องมีคะแนน TOEIC 600 หรือมากกว่าเท่านั้น ทั้ง 3 คนใฝ่ฝันที่อยากจะได้เลื่อนขั้น จึงลงเรียนพิเศษภาษาอังกฤษที่ Samjin Co. English Class แต่ต่อมาก็ได้พบว่าบริษัทของพวกเธอมีการคอรัปชั่นเกิ ดขึ้นภายใน พวกเธอจึงตัดสินใจร่วมมือกัน เพื่อเปิดโปงเรื่องราวทั้งหมด


    Format : Matroska
    Format version : Version 4
    File size : 4.11 GiB
    Duration : 1 h 50 min
    Overall bit rate : 5 309 kb/s
    Encoded date : UTC 2021-02-23 14:21:51
    Writing application : mkvmerge v53.0.0 ('Fool's Gold') 64-bit
    Writing library : libebml v1.4.1 + libmatroska v1.6.2

    Video
    ID : 1
    Format : AVC
    Format/Info : Advanced Video Codec
    Format profile : [email protected]
    Format settings : CABAC / 3 Ref Frames
    Format settings, CABAC : Yes
    Format settings, Reference : 3 frames
    Codec ID : V_MPEG4/ISO/AVC
    Duration : 1 h 50 min
    Bit rate : 4 870 kb/s
    Width : 1 920 pixels
    Height : 800 pixels
    Display aspect ratio : 2.40:1
    Frame rate mode : Constant
    Frame rate : 29.970 (30000/1001) FPS
    Color space : YUV
    Chroma subsampling : 4:2:0
    Bit depth : 8 bits
    Scan type : Progressive
    Bits/(Pixel*Frame) : 0.106
    Stream size : 3.77 GiB (92%)
    Language : Korean
    Default : Yes
    Forced : No

    Audio
    ID : 2
    Format : AC-3
    Format/Info : Audio Coding 3
    Commercial name : Dolby Digital
    Codec ID : A_AC3
    Duration : 1 h 50 min
    Bit rate mode : Constant
    Bit rate : 384 kb/s
    Channel(s) : 2 channels
    Channel layout : L R
    Sampling rate : 48.0 kHz
    Frame rate : 31.250 FPS (1536 SPF)
    Compression mode : Lossy
    Delay relative to video : 21 ms
    Stream size : 304 MiB (7%)
    Title : AC-3 Korean
    Language : Korean
    Service kind : Complete Main
    Default : Yes
    Forced : No

    Text #1
    ID : 3
    Format : VobSub
    Muxing mode : zlib
    Codec ID : S_VOBSUB
    Codec ID/Info : Picture based subtitle format used on DVDs
    Duration : 1 h 46 min
    Bit rate : 16.0 kb/s
    Count of elements : 1571
    Stream size : 12.2 MiB (0%)
    Title : Sub Thai 1080p
    Language : Thai
    Default : No
    Forced : No

    Text #2
    ID : 4
    Format : UTF-8
    Codec ID : S_TEXT/UTF8
    Codec ID/Info : UTF-8 Plain Text
    Duration : 1 h 46 min
    Bit rate : 163 b/s
    Count of elements : 1571
    Stream size : 127 KiB (0%)
    Title : Sub Thai SRT
    Language : Thai
    Default : No
    Forced : No

    Text #3
    ID : 5
    Format : PGS
    Muxing mode : zlib
    Codec ID : S_HDMV/PGS
    Codec ID/Info : Picture based subtitle format used on BDs/HD-DVDs
    Duration : 1 h 46 min
    Bit rate : 47.0 kb/s
    Count of elements : 3142
    Stream size : 35.7 MiB (1%)
    Title : Sub Thai PGS
    Language : Thai
    Default : Yes
    Forced : No

    Text #4
    ID : 6
    Format : VobSub
    Muxing mode : zlib
    Codec ID : S_VOBSUB
    Codec ID/Info : Picture based subtitle format used on DVDs
    Duration : 1 h 46 min
    Bit rate : 13.1 kb/s
    Count of elements : 1571
    Stream size : 9.93 MiB (0%)
    Title : Sub English 1080p
    Language : English
    Default : No
    Forced : No

    Text #5
    ID : 7
    Format : UTF-8
    Codec ID : S_TEXT/UTF8
    Codec ID/Info : UTF-8 Plain Text
    Duration : 1 h 46 min
    Bit rate : 57 b/s
    Count of elements : 1571
    Stream size : 45.1 KiB (0%)
    Title : Sub English SRT
    Language : English
    Default : No
    Forced : No

    Text #6
    ID : 8
    Format : PGS
    Muxing mode : zlib
    Codec ID : S_HDMV/PGS
    Codec ID/Info : Picture based subtitle format used on BDs/HD-DVDs
    Duration : 1 h 46 min
    Bit rate : 36.0 kb/s
    Count of elements : 3142
    Stream size : 27.3 MiB (1%)
    Title : Sub English PGS
    Language : English
    Default : No
    Forced : No





    Download:cornfile
    http://cornfile.com/2z98bz2uvby6
    Download:filecondo
    http://www.filecondo.com/dl.php?f=117e181LgI5H

  2. #2
    Senior Member
    สมัครเมื่อ
    Jul 2013
    โพสต์
    1,936
    Thanks
    0
    Thanked 0 Times in 0 Posts
    ขอบคุณครับ

+ ตอบกลับกระทู้

ข้อมูลกระทู้

Users Browsing this Thread

ในขณะนี้มี 1 ท่านดูกระทู้อยู่. (0 สมาชิกและ 1 ผู้เยี่ยมชม)

     

กฎการโพสต์ข้อความ

  • ท่าน ไม่สามารถ ตั้งกระทู้ใหม่ได้
  • ท่าน ไม่สามารถ ตอบกระทู้ได้
  • ท่าน ไม่สามารถ แนบไฟล์ได้
  • ท่าน ไม่สามารถ แก้ไขข้อความโพสต์ได้
  • BB code สถานะ เปิด
  • Smilies สถานะ เปิด
  • [IMG] สถานะ เปิด
  • HTML สถานะ ปิด