+ ตอบกลับกระทู้
สรุปผลการค้นหา 1 ถึง 8 จากทั้งหมด 8
  1. #1
    Administrators รูปส่วนตัว Duckload.us
    สมัครเมื่อ
    Dec 2010
    โพสต์
    126,470
    Thanks
    7
    Thanked 131,131 Times in 58,067 Posts

    Thumbs up [ฝรั่ง]-WandaVision Season 1 (2021) [Complete Season] [ตอน 1-9 จบ] [เสียงอังกฤษ 5.1] -WEB-DL.H.264.1080p. [Master] [บรรยายไทยแปลดี]



    ซีรี่ส์มีอลิซาเบธ โอลเซ่น กลับมารับบทเป็นวันดา แม็กซิมอฟ หรือสการ์เลต วิตช์ และ มี พอล เบตทานี กลับมารับบทเป็นวิชั่น คู่รักซูเปอร์ฮีโร่ที่ต้องพลัดพลากกันในเหตุการณ์สงค รามอัญมณีอินฟินิตี้ แต่ได้กลับมาพบกันในโลกที่วันดาสร้างขึ้นที่ดูเหมือน รายการซิตคอมทางทีวี

    ในโลกแห่งนี้ วันดากับวิชั่นกลายเป็นคู่สามีภรรยาที่อยู่กันอย่างม ีความสุขในโลกที่เหมือนคู่รักที่มาจากรายการซิตคอมแน วหรรษาอย่าง “Bewitched” และ “The Brandy Bunch” แต่มันจะเป็นโลกแห่งความสุขของวันดาไปได้ตลอดไปหรือไ ม่ เมื่อเริ่มมีบางสิ่งบางอย่างรบกวนจิตใจของเธอ และโลกหรรษาของเธอค่อยๆ เปลี่ยนไปตามภาวะของจิตใจ

    นักแสดงของซีรี่ส์ยังประกอบไปด้วยเทโยนาห์ แพร์รีส ผู้รับบทเป็นโมนิกา แรมโบ ในวัยผู้ใหญ่ (ตัวละครนี้ปรากฎตัวครั้งแรกเป็นเด็กผู้หญิงใน “Captain Marvel”), แคต เดนนิ่ง จาก “Thor” และ “Thor: The Dark World” ที่กลับมารับบทดาร์ซี ลูวิส, แรนดัล พาร์ค จาก “Ant-Man and the Wasp” ที่กลับมารับบทเอฟบีไอจิมมี่ วู สมทบด้วยแคธริน ฮาห์น, เดบรา โจ รัปป์ และ เฟร็ด เมแลเมด

    Format : Matroska
    Format version : Version 4
    File size : 2.96 GiB
    Duration : 26 min 36 s
    Overall bit rate : 15.9 Mb/s
    Encoded date : UTC 2021-03-07 14:40:55
    Writing application : mkvmerge v53.0.0 ('Fool's Gold') 64-bit
    Writing library : libebml v1.4.1 + libmatroska v1.6.2

    Video
    ID : 1
    Format : HEVC
    Format/Info : High Efficiency Video Coding
    Format profile : Main [email protected]@High
    Codec ID : V_MPEGH/ISO/HEVC
    Duration : 26 min 36 s
    Bit rate : 15.1 Mb/s
    Width : 3 840 pixels
    Height : 2 160 pixels
    Display aspect ratio : 16:9
    Frame rate mode : Constant
    Frame rate : 23.976 (24000/1001) FPS
    Color space : YUV
    Chroma subsampling : 4:2:0
    Bit depth : 10 bits
    Bits/(Pixel*Frame) : 0.076
    Stream size : 2.81 GiB (95%)
    Default : Yes
    Forced : No
    Color range : Limited
    Color primaries : BT.2020
    Transfer characteristics : PQ
    Matrix coefficients : BT.2020 non-constant

    Audio
    ID : 2
    Format : E-AC-3 JOC
    Format/Info : Enhanced AC-3 with Joint Object Coding
    Commercial name : Dolby Digital Plus with Dolby Atmos
    Codec ID : A_EAC3
    Duration : 26 min 36 s
    Bit rate mode : Constant
    Bit rate : 768 kb/s
    Channel(s) : 6 channels
    Channel layout : L R C LFE Ls Rs
    Sampling rate : 48.0 kHz
    Frame rate : 31.250 FPS (1536 SPF)
    Compression mode : Lossy
    Stream size : 146 MiB (5%)
    Title : English
    Language : English
    Service kind : Complete Main
    Default : No
    Forced : No
    Complexity index : 16
    Number of dynamic objects : 15
    Bed channel count : 1 channel
    Bed channel configuration : LFE

    Text #1
    ID : 3
    Format : UTF-8
    Codec ID : S_TEXT/UTF8
    Codec ID/Info : UTF-8 Plain Text
    Duration : 20 min 57 s
    Bit rate : 87 b/s
    Count of elements : 413
    Stream size : 13.4 KiB (0%)
    Title : English
    Language : English
    Default : No
    Forced : No

    Text #2
    ID : 4
    Format : UTF-8
    Codec ID : S_TEXT/UTF8
    Codec ID/Info : UTF-8 Plain Text
    Duration : 20 min 57 s
    Bit rate : 208 b/s
    Count of elements : 402
    Stream size : 31.9 KiB (0%)
    Language : Thai
    Default : Yes
    Forced : No














    1 ซับไทยแปลดี 1080p
    http://cornfile.com/zgwjgf4qkrrc
    http://www.filecondo.com/dl.php?f=D91fcd1L3Gmg
    2 ซับไทยแปลดี 1080p
    http://cornfile.com/9ow8bzzzs2re
    http://www.filecondo.com/dl.php?f=G320781L3Grv
    3 ซับไทยแปลดี 1080p
    http://cornfile.com/8q29dawqapl5
    http://www.filecondo.com/dl.php?f=l728221Lbeh4

    [บรรยายไทยแปลดี]
    Download:cornfile
    1-3 เป็นไฟล์แบบ 2160P
    EP1 WandaVision Filmed Before a Live Studio Audience ซับไทย.mkv - 3.0 GB
    EP2 WandaVision Don't Touch That Dial ซับไทย.mkv - 3.8 GB
    EP3 WandaVision Now in Color ซับไทย.mkv - 3.4 GB
    EP4 WandaVision We Interrupt This Program ซับไทย.mkv - 1.7 GB
    EP5 WandaVision On a Very Special Episode... ซับไทย.mkv - 2.0 GB
    EP6 WandaVision All-New Halloween Spooktacular! ซับไทย.mkv - 1.9 GB
    EP7 WandaVision Breaking the Fourth Wall ซับไทย.mkv - 1.9 GB
    EP8 WandaVision Previously On ซับไทย.mkv - 2.2 GB
    EP9 WandaVision The Series Finale ซับไทย.mkv - 2.5 GB

    Download:filecondo
    1-3 เป็นไฟล์แบบ 2160P
    1 http://www.filecondo.com/dl.php?f=V46d6c1LjdEx
    2 http://www.filecondo.com/dl.php?f=h1abc21LjdGQ
    3 http://www.filecondo.com/dl.php?f=e639371LjdHt
    4 http://www.filecondo.com/dl.php?f=3335081LjdIh
    5 http://www.filecondo.com/dl.php?f=N0fd191LjdJi
    6 http://www.filecondo.com/dl.php?f=Ca79891LjdKf
    7 http://www.filecondo.com/dl.php?f=J41db61LjdLd
    8 http://www.filecondo.com/dl.php?f=I33c0d1LjdMd
    9 http://www.filecondo.com/dl.php?f=Sf76631LjdNr

  2. The Following 4 Users Say Thank You to Duckload.us For This Useful Post:

    agg001 (03-09-2021), gaszolineskywalker (05-02-2021), jangska (03-08-2021), virusring (03-09-2021)

  3. #2
    Senior Member
    สมัครเมื่อ
    Jul 2013
    โพสต์
    2,116
    Thanks
    0
    Thanked 0 Times in 0 Posts
    ขอบคุณครับ ตอน7 เป็น mkv ซะที

  4. #3
    Junior Member
    สมัครเมื่อ
    Dec 2019
    โพสต์
    29
    Thanks
    0
    Thanked 0 Times in 0 Posts
    ขอบคุณครับ

  5. #4
    Junior Member
    สมัครเมื่อ
    May 2015
    โพสต์
    3
    Thanks
    0
    Thanked 0 Times in 0 Posts
    cornfile โหลดไม่ได้ครับ

  6. #5
    Junior Member
    สมัครเมื่อ
    Jul 2020
    โพสต์
    2
    Thanks
    0
    Thanked 0 Times in 0 Posts
    cornfile โหลดไม่ได้อ่ะครับ ช่วยแก้ไขหน่อยนะครับบบบ

  7. #6
    Senior Member
    สมัครเมื่อ
    Dec 2011
    โพสต์
    2,509
    Thanks
    74
    Thanked 0 Times in 0 Posts
    ขอบคุณมากค่ะ

  8. #7
    Junior Member รูปส่วนตัว kenshin09
    สมัครเมื่อ
    Apr 2021
    โพสต์
    1
    Thanks
    0
    Thanked 0 Times in 0 Posts
    cornfile โหลดไม่ได้ครับ

  9. #8
    Senior Member
    สมัครเมื่อ
    Oct 2012
    โพสต์
    1,533
    Thanks
    2,461
    Thanked 0 Times in 0 Posts
    ขอบคุณมากครับ

+ ตอบกลับกระทู้

ข้อมูลกระทู้

Users Browsing this Thread

ในขณะนี้มี 1 ท่านดูกระทู้อยู่. (0 สมาชิกและ 1 ผู้เยี่ยมชม)

     

กฎการโพสต์ข้อความ

  • ท่าน ไม่สามารถ ตั้งกระทู้ใหม่ได้
  • ท่าน ไม่สามารถ ตอบกระทู้ได้
  • ท่าน ไม่สามารถ แนบไฟล์ได้
  • ท่าน ไม่สามารถ แก้ไขข้อความโพสต์ได้
  • BB code สถานะ เปิด
  • Smilies สถานะ เปิด
  • [IMG] สถานะ เปิด
  • HTML สถานะ ปิด