+ ตอบกลับกระทู้
สรุปผลการค้นหา 1 ถึง 2 จากทั้งหมด 2
  1. #1
    Administrators รูปส่วนตัว Duckload.us
    สมัครเมื่อ
    Dec 2010
    โพสต์
    131,531
    Thanks
    7
    Thanked 135,188 Times in 59,793 Posts

    Thumbs up [ฝรั่ง]-[Apple TV] Cherry (2021) -WEB-DL.EAC-3.Atmos.1080p. [Modified]-[พากย์อังกฤษ Atmos 5.1 บรรยายไทย-อังกฤษ]




    ทอม ฮอลแลนด์ ที่มีทั้งหมด 5 บทบาท ได้แก่นักศึกษา, ทหาร, นักรัก, ขี้ยา และ โจร นอกจากนั้นจากการเปิดเผยที่มาของหนังเรื่องนี้ทางด้า น โจ รุสโซ ได้บอกไว้ว่า หนังเรื่อวนี้ได้ดัดแปลงจากชีวิตจริงของ นิโค วอล์คเกอร์ ทหารที่ผ่านสงครามตะวันออกกลาง และพบว่าตัวเองกลายเป็นโรคเครียดระดับรุนแรงที่แพทย์ ตรวจไม่พบ ทำให้เขาต้องใช้สารเสพติดจนติดหนี้แล้วนำไปสู่การเป็ นโจรปล้นธนาคารเพื่อหาเงินมาซื้อยา

    Format : Matroska
    Format version : Version 4
    File size : 4.90 GiB
    Duration : 2 h 21 min
    Overall bit rate : 4 978 kb/s
    Encoded date : UTC 2021-03-13 12:04:19
    Writing application : mkvmerge v55.0.0 ('Waiting For Space') 64-bit
    Writing library : libebml v1.4.2 + libmatroska v1.6.4

    Video
    ID : 1
    Format : AVC
    Format/Info : Advanced Video Codec
    Format profile : [email protected]
    Format settings : CABAC / 3 Ref Frames
    Format settings, CABAC : Yes
    Format settings, Reference : 3 frames
    Codec ID : V_MPEG4/ISO/AVC
    Duration : 2 h 21 min
    Bit rate : 4 168 kb/s
    Width : 1 920 pixels
    Height : 804 pixels
    Display aspect ratio : 2.40:1
    Frame rate mode : Constant
    Frame rate : 23.976 (24000/1001) FPS
    Color space : YUV
    Chroma subsampling : 4:2:0
    Bit depth : 8 bits
    Scan type : Progressive
    Bits/(Pixel*Frame) : 0.113
    Stream size : 4.11 GiB (84%)
    Language : English
    Default : Yes
    Forced : No
    Color range : Limited
    Color primaries : BT.709
    Transfer characteristics : BT.709
    Matrix coefficients : BT.709

    Audio
    ID : 2
    Format : E-AC-3 JOC
    Format/Info : Enhanced AC-3 with Joint Object Coding
    Commercial name : Dolby Digital Plus with Dolby Atmos
    Codec ID : A_EAC3
    Duration : 2 h 21 min
    Bit rate mode : Constant
    Bit rate : 768 kb/s
    Channel(s) : 6 channels
    Channel layout : L R C LFE Ls Rs
    Sampling rate : 48.0 kHz
    Frame rate : 31.250 FPS (1536 SPF)
    Compression mode : Lossy
    Stream size : 775 MiB (15%)
    Title : E-AC3 Atmos English
    Language : English
    Service kind : Complete Main
    Default : Yes
    Forced : No
    Complexity index : 16
    Number of dynamic objects : 15
    Bed channel count : 1 channel
    Bed channel configuration : LFE

    Text #1
    ID : 3
    Format : VobSub
    Muxing mode : zlib
    Codec ID : S_VOBSUB
    Codec ID/Info : Picture based subtitle format used on DVDs
    Duration : 2 h 20 min
    Bit rate : 9 810 b/s
    Count of elements : 1649
    Stream size : 9.89 MiB (0%)
    Title : Sub Thai 1080p
    Language : Thai
    Default : No
    Forced : No

    Text #2
    ID : 4
    Format : UTF-8
    Codec ID : S_TEXT/UTF8
    Codec ID/Info : UTF-8 Plain Text
    Duration : 2 h 20 min
    Bit rate : 100 b/s
    Count of elements : 1649
    Stream size : 104 KiB (0%)
    Title : Sub Thai SRT
    Language : Thai
    Default : No
    Forced : No

    Text #3
    ID : 5
    Format : PGS
    Muxing mode : zlib
    Codec ID : S_HDMV/PGS
    Codec ID/Info : Picture based subtitle format used on BDs/HD-DVDs
    Duration : 2 h 20 min
    Bit rate : 29.2 kb/s
    Count of elements : 3298
    Stream size : 29.4 MiB (1%)
    Title : Sub Thai PGS
    Language : Thai
    Default : Yes
    Forced : No

    Text #4
    ID : 6
    Format : VobSub
    Muxing mode : zlib
    Codec ID : S_VOBSUB
    Codec ID/Info : Picture based subtitle format used on DVDs
    Duration : 2 h 10 min
    Bit rate : 12.8 kb/s
    Count of elements : 1618
    Stream size : 12.0 MiB (0%)
    Title : Sub English 1080p
    Language : English
    Default : No
    Forced : No

    Text #5
    ID : 7
    Format : UTF-8
    Codec ID : S_TEXT/UTF8
    Codec ID/Info : UTF-8 Plain Text
    Duration : 2 h 10 min
    Bit rate : 57 b/s
    Count of elements : 1618
    Stream size : 55.1 KiB (0%)
    Title : Sub English SRT
    Language : English
    Default : No
    Forced : No

    Text #6
    ID : 8
    Format : PGS
    Muxing mode : zlib
    Codec ID : S_HDMV/PGS
    Codec ID/Info : Picture based subtitle format used on BDs/HD-DVDs
    Duration : 2 h 10 min
    Bit rate : 34.7 kb/s
    Count of elements : 3236
    Stream size : 32.4 MiB (1%)
    Title : Sub English PGS
    Language : English
    Default : No
    Forced : No






    Download:cornfile
    http://cornfile.com/772ft0wtn78s
    Download:filecondo
    http://www.filecondo.com/dl.php?f=p2dc6e1Mmro1 fix

  2. #2
    Administrators รูปส่วนตัว Duckload.us
    สมัครเมื่อ
    Dec 2010
    โพสต์
    131,531
    Thanks
    7
    Thanked 135,188 Times in 59,793 Posts
    เรียนแจ้ง แก้ไขแล้วครับ

+ ตอบกลับกระทู้

ข้อมูลกระทู้

Users Browsing this Thread

ในขณะนี้มี 1 ท่านดูกระทู้อยู่. (0 สมาชิกและ 1 ผู้เยี่ยมชม)

     

กฎการโพสต์ข้อความ

  • ท่าน ไม่สามารถ ตั้งกระทู้ใหม่ได้
  • ท่าน ไม่สามารถ ตอบกระทู้ได้
  • ท่าน ไม่สามารถ แนบไฟล์ได้
  • ท่าน ไม่สามารถ แก้ไขข้อความโพสต์ได้
  • BB code สถานะ เปิด
  • Smilies สถานะ เปิด
  • [IMG] สถานะ เปิด
  • HTML สถานะ ปิด