+ ตอบกลับกระทู้
สรุปผลการค้นหา 1 ถึง 2 จากทั้งหมด 2
  1. #1
    Administrators รูปส่วนตัว Duckload.us
    สมัครเมื่อ
    Dec 2010
    โพสต์
    125,228
    Thanks
    7
    Thanked 130,235 Times in 57,734 Posts

    Angry [ฝรั่ง]-(.WEB-DL.x265.8bit.SDR)++The Running Man (1987) คนเหล็กท้าชนนรก++[เสียงอังกฤษDTS-HD.MA.7.1+เสียงไทยมาสเตอร์ : บรรยายไทยPGSคมชัด+อังกฤษ]-Encode.H.265.2160p. [Modified]-[พากย์ไทย บรรยายไทย]





    SS



    Quote:
    ณ ลอสแองเจลลิส ได้มีเกมโชว์ที่ได้รับความนิยมอย่างมากทางโทรทัศน์ชื ่อ The Running Man โดยรูปแบบนั้นได้ให้นักโทษที่มีคดีนั้นมีโอกาสที่จะว ิ่งหนีจากผู้ล่า คือ Stalkers ใครที่สามารถรอดจากเกมโชว์นี้ไปได้จะได้รับอิสรภาพ และคอนโดมิเนียมที่ฮาวาย ไม่มีผู้แข่งขันรายใดที่สามารถหนีรอดจากเกมอันสุดโหด นี้ไปได้ และนักโทษที่โชคร้ายคนต่อไปก็คือ Arnold Schwarzenegger การต่อสู้ในเกมอันหฤโหดได้เริ่มขึ้น เขาจะสามารถต่อสู้กับเหล่า Stalkers และกลอุบายของผู้สร้างเกมโชว์นี้ได้หรือไม่…



    จับภาพตัวหนัง



    Quote:
    MediaInfo :

    General
    Unique ID : 130301507453365440319781077749842330087 (0x62072851F0F1B9E08B9C626B4AEC41E7)
    Complete name : F:The Running Man (1987).2160p.WEB-DL.x265.8bit.SDR.DTS-HD.MA.7.1The Running Man (1987).mkv
    Format : Matroska
    Format version : Version 4
    File size : 15.3 GiB
    Duration : 1 h 40 min
    Overall bit rate mode : Variable
    Overall bit rate : 21.7 Mb/s
    Movie name : The.Running.Man.1987.2160p.WEB-DL.x265.8bit.SDR.DTS-HD.MA.7.1
    Encoded date : UTC 2021-03-06 12:44:15
    Writing application : mkvmerge v48.0.0 ('Fortress Around Your Heart') 64-bit
    Writing library : libebml v1.4.0 + libmatroska v1.6.0
    Cover : Yes
    Attachments : small_cover.jpg / small_cover_land.jpg / cover.jpg / cover_land.jpg

    Video
    ID : 1
    Format : HEVC
    Format/Info : High Efficiency Video Coding
    Format profile : [email protected]@Main
    Codec ID : V_MPEGH/ISO/HEVC
    Duration : 1 h 40 min
    Bit rate : 14.9 Mb/s
    Width : 3 840 pixels
    Height : 2 160 pixels
    Display aspect ratio : 16:9
    Frame rate mode : Constant
    Frame rate : 23.976 (24000/1001) FPS
    Color space : YUV
    Chroma subsampling : 4:2:0
    Bit depth : 8 bits
    Bits/(Pixel*Frame) : 0.075
    Stream size : 10.5 GiB (69%)
    Writing library : x265 3.0:[Linux][GCC 4.8.5][64 bit] 8bit
    Encoding settings : cpuid=1111039 / frame-threads=6 / wpp / no-pmode / no-pme / no-psnr / no-ssim / log-level=2 / input-csp=1 / input-res=3840x2160 / interlace=0 / total-frames=0 / level-idc=0 / high-tier=1 / uhd-bd=0 / ref=3 / no-allow-non-conformance / no-repeat-headers / annexb / no-aud / no-hrd / info / hash=0 / no-temporal-layers / no-open-gop / min-keyint=4 / keyint=48 / gop-lookahead=0 / bframes=4 / b-adapt=2 / b-pyramid / bframe-bias=0 / rc-lookahead=80 / lookahead-slices=4 / scenecut=0 / radl=0 / no-splice / no-intra-refresh / ctu=64 / min-cu-size=8 / rect / no-amp / max-tu-size=32 / tu-inter-depth=1 / tu-intra-depth=1 / limit-tu=0 / rdoq-level=2 / dynamic-rd=0.00 / no-ssim-rd / signh-i-d-e / no-tskip / nr-intra=0 / nr-inter=0 / no-constrained-intra / strong-intra-smoothing / max-merge=3 / limit-refs=3 / limit-modes / me=2 / subme=3 / merange=64 / temporal-mvp / weightp / no-weightb / no-analyze-src-pics / deblock=0:0 / no-sao / no-sao-non-deblock / rd=4 / no-early-skip / no-rskip / no-fast-intra / no-tskip-fast / no-cu-lossless / no-b-intra / no-splitrd-skip / rdpenalty=0 / psy-rd=4.00 / psy-rdoq=10.00 / no-rd-refine / no-lossless / cbqpoffs=0 / crqpoffs=0 / rc=abr / bitrate=15000 / qcomp=0.60 / qpstep=1 / stats-write=0 / stats-read=0 / vbv-maxrate=22500 / vbv-bufsize=22500 / vbv-init=0.9 / ipratio=1.10 / pbratio=1.00 / aq-mode=0 / aq-strength=0.00 / no-cutree / zone-count=0 / no-strict-cbr / qg-size=32 / rc-grain / qpmax=69 / qpmin=0 / const-vbv / sar=1 / overscan=0 / videoformat=5 / range=0 / colorprim=1 / transfer=1 / colormatrix=1 / chromaloc=0 / display-window=0 / max-cll=0,0 / min-luma=0 / max-luma=255 / log2-max-poc-lsb=8 / vui-timing-info / vui-hrd-info / slices=1 / no-opt-qp-pps / no-opt-ref-list-length-pps / no-multi-pass-opt-rps / scenecut-bias=0.05 / no-opt-cu-delta-qp / no-aq-motion / no-hdr / no-hdr-opt / no-dhdr10-opt / no-idr-recovery-sei / analysis-reuse-level=5 / scale-factor=0 / refine-intra=0 / refine-inter=0 / refine-mv=0 / refine-ctu-distortion=0 / no-limit-sao / ctu-info=0 / no-lowpass-dct / refine-analysis-type=0 / copy-pic=1 / max-ausize-factor=1.0 / no-dynamic-refine / no-single-sei / no-hevc-aq / qp-adaptation-range=1.00
    Language : English
    Default : Yes
    Forced : No
    Color range : Limited
    Color primaries : BT.709
    Transfer characteristics : BT.709
    Matrix coefficients : BT.709

    Audio #1
    ID : 2
    Format : DTS XLL
    Format/Info : Digital Theater Systems
    Commercial name : DTS-HD Master Audio
    Codec ID : A_DTS
    Duration : 1 h 40 min
    Bit rate mode : Variable
    Bit rate : 5 427 kb/s
    Channel(s) : 8 channels
    Channel layout : C L R LFE Lb Rb Lss Rss
    Sampling rate : 48.0 kHz
    Frame rate : 93.750 FPS (512 SPF)
    Bit depth : 24 bits
    Compression mode : Lossless
    Stream size : 3.82 GiB (25%)
    Title : DTS-HD MA 7.1
    Language : English
    Default : Yes
    Forced : No

    Audio #2
    ID : 3
    Format : AC-3
    Format/Info : Audio Coding 3
    Commercial name : Dolby Digital
    Codec ID : A_AC3
    Duration : 1 h 40 min
    Bit rate mode : Constant
    Bit rate : 640 kb/s
    Channel(s) : 6 channels
    Channel layout : L R C LFE Ls Rs
    Sampling rate : 48.0 kHz
    Frame rate : 31.250 FPS (1536 SPF)
    Compression mode : Lossy
    Delay relative to video : 500 ms
    Stream size : 461 MiB (3%)
    Title : Master DVD
    Language : Thai
    Service kind : Complete Main
    Default : No
    Forced : No

    Audio #3
    ID : 4
    Format : AC-3
    Format/Info : Audio Coding 3
    Commercial name : Dolby Digital
    Codec ID : A_AC3
    Duration : 1 h 40 min
    Bit rate mode : Constant
    Bit rate : 640 kb/s
    Channel(s) : 6 channels
    Channel layout : L R C LFE Ls Rs
    Sampling rate : 48.0 kHz
    Frame rate : 31.250 FPS (1536 SPF)
    Compression mode : Lossy
    Stream size : 461 MiB (3%)
    Title : DDP 5.1
    Language : English
    Service kind : Complete Main
    Default : No
    Forced : No

    Text #1
    ID : 5
    Format : PGS
    Muxing mode : zlib
    Codec ID : S_HDMV/PGS
    Codec ID/Info : Picture based subtitle format used on BDs/HD-DVDs
    Duration : 1 h 32 min
    Bit rate : 45.7 kb/s
    Count of elements : 2122
    Stream size : 30.2 MiB (0%)
    Title : Angsana UPC
    Language : Thai
    Default : Yes
    Forced : No

    Text #2
    ID : 6
    Format : PGS
    Muxing mode : zlib
    Codec ID : S_HDMV/PGS
    Codec ID/Info : Picture based subtitle format used on BDs/HD-DVDs
    Duration : 1 h 32 min
    Bit rate : 41.1 kb/s
    Count of elements : 2122
    Stream size : 27.2 MiB (0%)
    Title : Tahoma
    Language : Thai
    Default : No
    Forced : No

    Text #3
    ID : 7
    Format : VobSub
    Muxing mode : zlib
    Codec ID : S_VOBSUB
    Codec ID/Info : Picture based subtitle format used on DVDs
    Duration : 1 h 32 min
    Bit rate : 9 959 b/s
    Count of elements : 1061
    Stream size : 6.58 MiB (0%)
    Title : Angsana UPC
    Language : Thai
    Default : No
    Forced : No

    Text #4
    ID : 8
    Format : VobSub
    Muxing mode : zlib
    Codec ID : S_VOBSUB
    Codec ID/Info : Picture based subtitle format used on DVDs
    Duration : 1 h 32 min
    Bit rate : 9 070 b/s
    Count of elements : 1061
    Stream size : 5.99 MiB (0%)
    Title : Tahoma
    Language : Thai
    Default : No
    Forced : No

    Text #5
    ID : 9
    Format : UTF-8
    Codec ID : S_TEXT/UTF8
    Codec ID/Info : UTF-8 Plain Text
    Duration : 1 h 38 min
    Bit rate : 56 b/s
    Count of elements : 1027
    Stream size : 40.6 KiB (0%)
    Title : SRT
    Language : English
    Default : No
    Forced : No

    Text #6
    ID : 10
    Format : PGS
    Muxing mode : zlib
    Codec ID : S_HDMV/PGS
    Codec ID/Info : Picture based subtitle format used on BDs/HD-DVDs
    Duration : 1 h 38 min
    Bit rate : 34.4 kb/s
    Count of elements : 2054
    Stream size : 24.2 MiB (0%)
    Title : English-PGS
    Language : English
    Default : No
    Forced : No

    Text #7
    ID : 11
    Format : PGS
    Muxing mode : zlib
    Codec ID : S_HDMV/PGS
    Codec ID/Info : Picture based subtitle format used on BDs/HD-DVDs
    Duration : 1 h 38 min
    Bit rate : 37.5 kb/s
    Count of elements : 2308
    Stream size : 26.4 MiB (0%)
    Title : English-SDH-PGS
    Language : English
    Default : No
    Forced : No

    Menu
    00:00:00.000 : en:Main Title/Year: 2017
    00:03:22.077 : en:Prison Riot
    00:09:36.659 : en: He's Not One of Us
    00:14:32.038 : en:Ruler of the Airwaves
    00:16:37.205 : en:Home Intrusion
    00:21:57.858 : en:The Perfect Candidate
    00:24:32.513 : en:A Little Trip
    00:27:58.886 : en:Preparing For the Game
    00:34:07.212 : en:Showtime!
    00:39:19.816 : en:The Guest Butcher
    00:43:58.386 : en:Welcome, Stalkers!
    00:45:15.463 : en:Live From the First Quad
    00:49:27.882 : en:Our Next Contestant
    00:53:39.133 : en:Tag Team
    00:57:17.684 : en:Buzz Saw
    01:02:37.671 : enynamo
    01:05:09.989 : en:Complications
    01:09:18.696 : en:Fireball
    01:14:35.471 : en:Revelations
    01:18:05.931 : en:Half-Truths
    01:22:41.623 : en:Counterprogramming
    01:25:50.896 : en:The Truth Revealed
    01:29:40.166 : en:Ratings Drop
    01:34:29.539 : en:Credits


    http://cornfile.com/834ge5sl8zf0

  2. #2
    Senior Member
    สมัครเมื่อ
    Jul 2012
    โพสต์
    7,397
    Thanks
    0
    Thanked 0 Times in 0 Posts
    ขอบคุณมากจ้า

+ ตอบกลับกระทู้

ข้อมูลกระทู้

Users Browsing this Thread

ในขณะนี้มี 1 ท่านดูกระทู้อยู่. (0 สมาชิกและ 1 ผู้เยี่ยมชม)

     

กฎการโพสต์ข้อความ

  • ท่าน ไม่สามารถ ตั้งกระทู้ใหม่ได้
  • ท่าน ไม่สามารถ ตอบกระทู้ได้
  • ท่าน ไม่สามารถ แนบไฟล์ได้
  • ท่าน ไม่สามารถ แก้ไขข้อความโพสต์ได้
  • BB code สถานะ เปิด
  • Smilies สถานะ เปิด
  • [IMG] สถานะ เปิด
  • HTML สถานะ ปิด