+ ตอบกลับกระทู้
สรุปผลการค้นหา 1 ถึง 3 จากทั้งหมด 3
  1. #1
    Administrators รูปส่วนตัว Duckload.us
    สมัครเมื่อ
    Dec 2010
    โพสต์
    125,246
    Thanks
    7
    Thanked 130,236 Times in 57,734 Posts

    Thumbs up [ฝรั่ง]-[*ซับไทย น้อง ๆ มาสเตอร์*] [*แปลภาษามือเพิ่มเติม*] Godzilla vs. Kong (2021) - ก็อดซิลล่า ปะทะ คอง [1080p HBO MAX] [เสียงอังกฤษ AAC + เสียงอังกฤษ Atmos + เสียงไทยโรง] [บรรยายไทย + อังกฤษ] [ซับไทยพิมพ์ตามเสียงไทยโรงของจริง!]






    ศึกครั้งใหญ่ที่ระหว่างสองยักษ์ใหญ่ “Godzilla vs. Kong - ก็อดซิลล่า ปะทะ คอง” มหากาพย์การผจญภัยครั้งใหม่ในจักรวาลภาพยนตร์มอนสเตอ ร์เวิร์สของเลเจนดารี่ โดยการกำกับของ อดัม วินการ์ด

    General
    Unique ID : 141011752623838032368128200153267606058 (0x6A15E02D257259E0C9CF1BC8456A922A)
    Complete name : Godzilla.vs.Kong.2021.1080p.WEBRip.x264-jaideejung007.mkv
    Format : Matroska
    Format version : Version 4
    File size : 2.87 GiB
    Duration : 1 h 53 min
    Overall bit rate : 3 637 kb/s
    Movie name : Godzilla.vs.Kong.2021.1080p.WEBRip.x264-jaideejung007
    Encoded date : UTC 2021-04-06 09:49:22
    Writing application : mkvmerge v50.0.0 ('Awakenings') 64-bit
    Writing library : libebml v1.4.0 + libmatroska v1.6.2

    Video
    ID : 1
    Format : AVC
    Format/Info : Advanced Video Codec
    Format profile : [email protected]
    Format settings : CABAC / 4 Ref Frames
    Format settings, CABAC : Yes
    Format settings, Reference frames : 4 frames
    Codec ID : V_MPEG4/ISO/AVC
    Duration : 1 h 53 min
    Bit rate : 2 500 kb/s
    Width : 1 920 pixels
    Height : 804 pixels
    Display aspect ratio : 2.40:1
    Frame rate mode : Constant
    Frame rate : 23.976 (23976/1000) FPS
    Color space : YUV
    Chroma subsampling : 4:2:0
    Bit depth : 8 bits
    Scan type : Progressive
    Bits/(Pixel*Frame) : 0.068
    Stream size : 1.97 GiB (69%)
    Title : Godzilla.vs.Kong.2021.1080p.WEBRip.x264-jaideejung007
    Writing library : x264 core 152 r2851M ba24899
    Encoding settings : cabac=1 / ref=4 / deblock=1:-1:-1 / analyse=0x3:0x113 / me=umh / subme=9 / psy=1 / psy_rd=1.00:0.15 / mixed_ref=1 / me_range=24 / chroma_me=1 / trellis=2 / 8x8dct=1 / cqm=0 / deadzone=21,11 / fast_pskip=1 / chroma_qp_offset=-3 / threads=16 / lookahead_threads=4 / sliced_threads=0 / nr=0 / decimate=1 / interlaced=0 / bluray_compat=0 / constrained_intra=0 / bframes=3 / b_pyramid=2 / b_adapt=2 / b_bias=0 / direct=3 / weightb=1 / open_gop=0 / weightp=2 / keyint=250 / keyint_min=25 / scenecut=40 / intra_refresh=0 / rc_lookahead=50 / rc=2pass / mbtree=1 / bitrate=2500 / ratetol=1.0 / qcomp=0.60 / qpmin=0 / qpmax=69 / qpstep=4 / cplxblur=20.0 / qblur=0.5 / vbv_maxrate=31250 / vbv_bufsize=31250 / nal_hrd=none / filler=0 / ip_ratio=1.40 / aq=3:1.00
    Language : English
    Default : Yes
    Forced : No

    Audio #1
    ID : 2
    Format : AAC LC
    Format/Info : Advanced Audio Codec Low Complexity
    Codec ID : A_AAC-2
    Duration : 1 h 53 min
    Bit rate : 224 kb/s
    Channel(s) : 6 channels
    Channel layout : C L R Ls Rs LFE
    Sampling rate : 48.0 kHz
    Frame rate : 46.875 FPS (1024 SPF)
    Compression mode : Lossy
    Delay relative to video : -43 ms
    Stream size : 181 MiB (6%)
    Title : English
    Language : English
    Default : Yes
    Forced : Yes

    Audio #2
    ID : 3
    Format : E-AC-3 JOC
    Format/Info : Enhanced AC-3 with Joint Object Coding
    Commercial name : Dolby Digital Plus with Dolby Atmos
    Codec ID : A_EAC3
    Duration : 1 h 53 min
    Bit rate mode : Constant
    Bit rate : 768 kb/s
    Channel(s) : 6 channels
    Channel layout : L R C LFE Ls Rs
    Sampling rate : 48.0 kHz
    Frame rate : 31.250 FPS (1536 SPF)
    Compression mode : Lossy
    Delay relative to video : -43 ms
    Stream size : 622 MiB (21%)
    Title : English Atmos
    Language : English
    Service kind : Complete Main
    Default : No
    Forced : No
    Complexity index : 16
    Number of dynamic objects : 15
    Bed channel count : 1 channel
    Bed channel configuration : LFE

    Audio #3
    ID : 4
    Format : AAC LC
    Format/Info : Advanced Audio Codec Low Complexity
    Codec ID : A_AAC-2
    Duration : 1 h 53 min
    Bit rate : 96.0 kb/s
    Channel(s) : 2 channels
    Channel layout : L R
    Sampling rate : 48.0 kHz
    Frame rate : 46.875 FPS (1024 SPF)
    Compression mode : Lossy
    Delay relative to video : -43 ms
    Stream size : 77.7 MiB (3%)
    Title : Thai Rong
    Language : Thai
    Default : No
    Forced : No

    Text #1
    ID : 5
    Format : VobSub
    Codec ID : S_VOBSUB
    Codec ID/Info : Picture based subtitle format used on DVDs
    Duration : 1 h 49 min
    Bit rate : 4 791 b/s
    Count of elements : 985
    Stream size : 3.77 MiB (0%)
    Title : Thai
    Language : Thai
    Default : Yes
    Forced : Yes

    Text #2
    ID : 6
    Format : VobSub
    Codec ID : S_VOBSUB
    Codec ID/Info : Picture based subtitle format used on DVDs
    Duration : 1 h 49 min
    Bit rate : 4 781 b/s
    Count of elements : 985
    Stream size : 3.76 MiB (0%)
    Title : Thai Yellow
    Language : Thai
    Default : No
    Forced : No

    Text #3
    ID : 7
    Format : PGS
    Codec ID : S_HDMV/PGS
    Codec ID/Info : Picture based subtitle format used on BDs/HD-DVDs
    Duration : 1 h 49 min
    Bit rate : 19.7 kb/s
    Count of elements : 1974
    Stream size : 15.5 MiB (1%)
    Title : Thai PGS
    Language : Thai
    Default : No
    Forced : No

    Text #4
    ID : 8
    Format : PGS
    Codec ID : S_HDMV/PGS
    Codec ID/Info : Picture based subtitle format used on BDs/HD-DVDs
    Duration : 1 h 49 min
    Bit rate : 19.6 kb/s
    Count of elements : 1970
    Stream size : 15.4 MiB (1%)
    Title : Thai PGS OUT
    Language : Thai
    Default : No
    Forced : No

    Text #5
    ID : 9
    Format : UTF-8
    Codec ID : S_TEXT/UTF8
    Codec ID/Info : UTF-8 Plain Text
    Duration : 1 h 45 min
    Bit rate : 37 b/s
    Count of elements : 983
    Stream size : 29.1 KiB (0%)
    Title : English
    Language : English
    Default : No
    Forced : No

    Text #6
    ID : 10
    Format : UTF-8
    Codec ID : S_TEXT/UTF8
    Codec ID/Info : UTF-8 Plain Text
    Duration : 1 h 45 min
    Bit rate : 49 b/s
    Count of elements : 1415
    Stream size : 38.1 KiB (0%)
    Title : English SDH
    Language : English
    Default : No
    Forced : No










    ซับไทยพิมพ์ตามเสียงไทยโรงโดย jaideejung007
    เสียงไทยโรงจากคุณ speedfm89
    เรียบเรียง/พิสูจน์อักษรโดย jaideejung007

    แจ้งเพื่อทราบ: กรณีเปิดไฟล์นี้กับคอมพิวเตอร์แล้วเสียงไม่ออก ซับไม่ขึ้น หรือซับดูเตี้ย ๆ ตัน ๆ เกินความเป็นจริง แนะนำให้เปิดด้วยโปรแกรม PotPlayer เพราะโปรแกรมนี้จะรองรับไฟล์ครอบจักรวาลและที่สำคัญม ีปัญหาในการเล่นน้อยที่สุดกว่าโปรแกรมอื่น ๆ ควรมีติดเครื่องไว้อย่างยิ่ง

    แจ้งเพื่อทราบ 2: เสียงเป็นแบบ Dolby Digital Plus with Dolby Atmos ซึ่งเป็น Source มาจากต่างประเทศ อาจมีเครื่องเล่นบางตัวไม่รองรับ แต่ถ้าเปิดกับคอมพิวเตอร์ รองรับสมบูรณ์ 100% ก่อนดาวน์โหลด รบกวนตรวจสอบให้ละเอียดด้วยนะครับ

    แจ้งเพื่อทราบ 3: ซับไทย (IDX, PGS) สามารถเปิดได้ทุกเครื่องเล่น การันตี 99.99%

    แจ้งเพื่อทราบ 4: ทุกไฟล์ที่แจกในนี้ มี source มาจากต่างประเทศ (HBO MAX) คือ ไม่ตัด ไม่เซ็นเซอร์ครับ ไฟล์นี้ก็เช่นกัน

    2.9 GB
    Download:cornfile
    http://cornfile.com/77pabjp1arpj
    Download:filecondo
    http://www.filecondo.com/dl.php?f=Bd65021LtYJL

  2. #2
    Senior Member
    สมัครเมื่อ
    Oct 2013
    โพสต์
    1,910
    Thanks
    0
    Thanked 0 Times in 0 Posts
    ขอบคุณครับ

  3. #3
    Junior Member
    สมัครเมื่อ
    Sep 2013
    โพสต์
    1
    Thanks
    0
    Thanked 0 Times in 0 Posts
    ขอบคุณครับ

+ ตอบกลับกระทู้

ข้อมูลกระทู้

Users Browsing this Thread

ในขณะนี้มี 1 ท่านดูกระทู้อยู่. (0 สมาชิกและ 1 ผู้เยี่ยมชม)

     

กฎการโพสต์ข้อความ

  • ท่าน ไม่สามารถ ตั้งกระทู้ใหม่ได้
  • ท่าน ไม่สามารถ ตอบกระทู้ได้
  • ท่าน ไม่สามารถ แนบไฟล์ได้
  • ท่าน ไม่สามารถ แก้ไขข้อความโพสต์ได้
  • BB code สถานะ เปิด
  • Smilies สถานะ เปิด
  • [IMG] สถานะ เปิด
  • HTML สถานะ ปิด