+ ตอบกลับกระทู้
สรุปผลการค้นหา 1 ถึง 3 จากทั้งหมด 3
  1. #1
    Administrators รูปส่วนตัว Duckload.us
    สมัครเมื่อ
    Dec 2010
    โพสต์
    126,423
    Thanks
    7
    Thanked 131,045 Times in 58,043 Posts

    Angry [จีน]-[เสียงไทยหายาก][หลิว เต๋อหัว] Kung Fu VS Acrobatic (1990) เจาะตำนานยูไล-[ให้เสียงภาษาไทยโดยอินทรี]



    สองหนุ่มเพื่อนซี้ อาเฟย (หลิวเต๋อหัว) และอาจื่อ (เฉินไป่เสียน) พนักงานบริษัทโฆษณาถูกส่งไปทำงานที่จีนแผ่นดินใหญ่ เพื่อไม่ให้เป็นการเสียเวลา ทั้งสองถือโอกาสเสี่ยงโชค หาเงินก้อนใหญ่ในการเดินทางมาเมืองจีน ด้วยการลักลอบหาของเก่าเก๊ เพื่อนำกลับมาฮ่องกงด้วย ยังไม่ทันได้ก้าวออกจากแผ่นดินจีน ดวงซวยก็ถามหา เมืองตำรวจจีนเกิดจับพิรุธได้ สองหนุ่มต้องหนีเถลิดเปิดเปิงเขาไปในชายป่า

    Code:
    Format                      : Matroska
    
    Format version              : Version 4
    
    File size                   : 5.22 GiB
    
    Duration                    : 1 h 38 min
    
    Overall bit rate            : 7 567 kb/s
    
    Encoded date                : UTC 2021-03-20 13:51:15
    
    Writing application         : mkvmerge v7.0.0 ('Where We Going') 64bit built on Jun  9 2014 15:16:27
    
    Writing library             : libebml v1.3.0 + libmatroska v1.4.1
    
    Video
    
    ID                          : 1
    
    Format                      : AVC
    
    Format/Info                 : Advanced Video Codec
    
    Format profile              : [email protected]
    
    Format settings             : CABAC / 4 Ref Frames
    
    Format settings, CABAC      : Yes
    
    Format settings, Reference  : 4 frames
    
    Codec ID                    : V_MPEG4/ISO/AVC
    
    Duration                    : 1 h 38 min
    
    Bit rate                    : 6 700 kb/s
    
    Width                       : 1 920 pixels
    
    Height                      : 1 080 pixels
    
    Display aspect ratio        : 16:9
    
    Frame rate mode             : Constant
    
    Frame rate                  : 24.000 FPS
    
    Color space                 : YUV
    
    Chroma subsampling          : 4:2:0
    
    Bit depth                   : 8 bits
    
    Scan type                   : Progressive
    
    Bits/(Pixel*Frame)          : 0.135
    
    Stream size                 : 4.62 GiB (89%)
    
    Writing library             : x264 core 157 r2935 545de2f
    
    Encoding settings           : cabac=1 / ref=4 / deblock=1:0:0 / analyse=0x3:0x133 / me=umh / subme=9 / psy=1 / psy_rd=1.00:0.00 / mixed_ref=1 / me_range=16 / chroma_me=1 / trellis=2 / 8x8dct=1 / cqm=0 / deadzone=21,11 / fast_pskip=1 / chroma_qp_offset=-2 / threads=6 / lookahead_threads=1 / sliced_threads=0 / nr=0 / decimate=1 / interlaced=0 / bluray_compat=0 / constrained_intra=0 / bframes=3 / b_pyramid=2 / b_adapt=2 / b_bias=0 / direct=3 / weightb=1 / open_gop=0 / weightp=2 / keyint=240 / keyint_min=24 / scenecut=40 / intra_refresh=0 / rc_lookahead=60 / rc=2pass / mbtree=1 / bitrate=6700 / ratetol=1.0 / qcomp=0.60 / qpmin=0 / qpmax=69 / qpstep=4 / cplxblur=20.0 / qblur=0.5 / vbv_maxrate=25000 / vbv_bufsize=31250 / nal_hrd=none / filler=0 / ip_ratio=1.40 / aq=1:1.00
    
    Default                     : Yes
    
    Forced                      : No
    
    Color range                 : Limited
    
    Color primaries             : BT.709
    
    Transfer characteristics    : BT.709
    
    Matrix coefficients         : BT.709
    
    Audio #1
    
    ID                          : 2
    
    Format                      : AAC LC
    
    Format/Info                 : Advanced Audio Codec Low Complexity
    
    Codec ID                    : A_AAC-2
    
    Duration                    : 1 h 38 min
    
    Bit rate                    : 192 kb/s
    
    Channel(s)                  : 2 channels
    
    Channel layout              : L R
    
    Sampling rate               : 44.1 kHz
    
    Frame rate                  : 43.066 FPS (1024 SPF)
    
    Compression mode            : Lossy
    
    Stream size                 : 138 MiB (3%)
    
    Title                       : AAC 2.0
    
    Language                    : Thai
    
    Default                     : Yes
    
    Forced                      : No
    
    Audio #2
    
    ID                          : 3
    
    Format                      : AC-3
    
    Format/Info                 : Audio Coding 3
    
    Commercial name             : Dolby Digital
    
    Codec ID                    : A_AC3
    
    Duration                    : 1 h 38 min
    
    Bit rate mode               : Constant
    
    Bit rate                    : 640 kb/s
    
    Channel(s)                  : 6 channels
    
    Channel layout              : L R C LFE Ls Rs
    
    Sampling rate               : 48.0 kHz
    
    Frame rate                  : 31.250 FPS (1536 SPF)
    
    Compression mode            : Lossy
    
    Stream size                 : 452 MiB (8%)
    
    Title                       : AC3 5.1
    
    Language                    : Chinese
    
    Service kind                : Complete Main
    
    Default                     : No
    
    Forced                      : No
    
    Text #1
    
    ID                          : 4
    
    Format                      : ASS
    
    Codec ID                    : S_TEXT/ASS
    
    Codec ID/Info               : Advanced Sub Station Alpha
    
    Duration                    : 1 h 35 min
    
    Bit rate                    : 98 b/s
    
    Count of elements           : 1378
    
    Compression mode            : Lossless
    
    Stream size                 : 68.9 KiB (0%)
    
    Title                       : ssa
    
    Language                    : English
    
    Default                     : No
    
    Forced                      : No
    
    Text #2
    
    ID                          : 5
    
    Format                      : PGS
    
    Muxing mode                 : zlib
    
    Codec ID                    : S_HDMV/PGS
    
    Codec ID/Info               : Picture based subtitle format used on BDs/HD-DVDs
    
    Duration                    : 1 h 35 min
    
    Bit rate                    : 16.2 kb/s
    
    Count of elements           : 2289
    
    Stream size                 : 11.1 MiB (0%)
    
    Title                       : Traditional Chinese
    
    Language                    : Chinese
    
    Default                     : No
    
    Forced                      : No
    
    Text #3
    
    ID                          : 6
    
    Format                      : PGS
    
    Muxing mode                 : zlib
    
    Codec ID                    : S_HDMV/PGS
    
    Codec ID/Info               : Picture based subtitle format used on BDs/HD-DVDs
    
    Duration                    : 1 h 35 min
    
    Bit rate                    : 16.0 kb/s
    
    Count of elements           : 2289
    
    Stream size                 : 10.9 MiB (0%)
    
    Title                       : CN
    
    Language                    : Chinese
    
    Default                     : No
    
    Forced                      : No


    http://cornfile.com/4w5f9tfojo37

  2. #2
    Senior Member
    สมัครเมื่อ
    Jul 2012
    โพสต์
    7,475
    Thanks
    0
    Thanked 0 Times in 0 Posts
    ขอบคุณมากจ้า

  3. #3
    Senior Member
    สมัครเมื่อ
    Jul 2013
    โพสต์
    2,108
    Thanks
    0
    Thanked 0 Times in 0 Posts
    ขอบคุณครับ

+ ตอบกลับกระทู้

ข้อมูลกระทู้

Users Browsing this Thread

ในขณะนี้มี 1 ท่านดูกระทู้อยู่. (0 สมาชิกและ 1 ผู้เยี่ยมชม)

     

กฎการโพสต์ข้อความ

  • ท่าน ไม่สามารถ ตั้งกระทู้ใหม่ได้
  • ท่าน ไม่สามารถ ตอบกระทู้ได้
  • ท่าน ไม่สามารถ แนบไฟล์ได้
  • ท่าน ไม่สามารถ แก้ไขข้อความโพสต์ได้
  • BB code สถานะ เปิด
  • Smilies สถานะ เปิด
  • [IMG] สถานะ เปิด
  • HTML สถานะ ปิด