+ ตอบกลับกระทู้
สรุปผลการค้นหา 1 ถึง 3 จากทั้งหมด 3
  1. #1
    Administrators รูปส่วนตัว Duckload.us
    สมัครเมื่อ
    Dec 2010
    โพสต์
    126,387
    Thanks
    7
    Thanked 130,975 Times in 58,016 Posts

    Thumbs up [ฝรั่ง]-[New series HBO] The Nevers 2021 S01E01-04 [เสียง:อังกฤษ AC-3 ][บรรยาย: ไทย HBO PGS-อังกฤษ]-WEB-DL.H.264.1080p. [From HD-TV]-[Soundtrack บรรยายไทย]





    THE NEVERS S1
    ในยุคปี 1800 กลุ่มผู้หญิงวิกตอเรียนใช้พลังเหนือมนุษย์สุดแสนพิเศ ษของพวกเธอตั้งตนเป็นซูเปอร์ฮีโร่เพื่อรับมือกับการเ ปลี่ยนแปลงที่ไม่หยุดยั้งของยุคปฏิวัติไอน้ำและเหล็ก กล้า

    Video
    ID : 1
    Format : AVC
    Format/Info : Advanced Video Codec
    Format profile : [email protected]
    Format settings : CABAC / 4 Ref Frames
    Format settings, CABAC : Yes
    Format settings, Reference fra : 4 frames
    Codec ID : V_MPEG4/ISO/AVC
    Duration : 1 h 12 min
    Bit rate mode : Constant
    Bit rate : 8 419 kb/s
    Nominal bit rate : 10 000 kb/s
    Width : 1 920 pixels
    Height : 1 080 pixels
    Display aspect ratio : 16:9
    Frame rate mode : Constant
    Frame rate : 23.976 (23976/1000) FPS
    Original frame rate : 23.976 (24000/1001) FPS
    Color space : YUV
    Chroma subsampling : 4:2:0
    Bit depth : 8 bits
    Scan type : Progressive
    Bits/(Pixel*Frame) : 0.169
    Stream size : 4.28 GiB (93%)
    Default : Yes
    Forced : No
    Color range : Limited
    Color primaries : BT.709
    Transfer characteristics : BT.709
    Matrix coefficients : BT.709

    Audio
    ID : 2
    Format : E-AC-3
    Format/Info : Enhanced AC-3
    Commercial name : Dolby Digital Plus
    Codec ID : A_EAC3
    Duration : 1 h 12 min
    Bit rate mode : Constant
    Bit rate : 640 kb/s
    Channel(s) : 6 channels
    Channel layout : L R C LFE Ls Rs
    Sampling rate : 48.0 kHz
    Frame rate : 31.250 FPS (1536 SPF)
    Compression mode : Lossy
    Stream size : 333 MiB (7%)
    Title : [AC-3-English]
    Language : English
    Service kind : Complete Main
    Default : Yes
    Forced : No

    Text #1
    ID : 3
    Format : PGS
    Muxing mode : zlib
    Codec ID : S_HDMV/PGS
    Codec ID/Info : Picture based subtitle format used on BDs/HD-DVDs
    Duration : 1 h 1 min
    Bit rate : 51.3 kb/s
    Count of elements : 1554
    Stream size : 22.6 MiB (0%)
    Title : [Thai HBO PGS]
    Language : Thai
    Default : Yes
    Forced : No

    Text #2
    ID : 4
    Format : UTF-8
    Codec ID : S_TEXT/UTF8
    Codec ID/Info : UTF-8 Plain Text
    Duration : 1 h 12 min
    Bit rate : 71 b/s
    Count of elements : 1260
    Stream size : 38.1 KiB (0%)
    Title : SRT
    Language : English
    Default : No
    Forced : No








    01 http://www.filecondo.com/dl.php?f=U2b9671LvXWp
    02 http://www.filecondo.com/dl.php?f=e529411LzdLn
    03 http://www.filecondo.com/dl.php?f=e06c1c1LBpBB
    04 http://www.filecondo.com/dl.php?f=a61f5a1LDMwO

    01 http://cornfile.com/dyvakvnopcve
    02 http://cornfile.com/lid9yjzkzyi0
    03 http://cornfile.com/a4lnwztc8sa7
    04 http://cornfile.com/1kgp8gkglxr3

  2. The Following User Says Thank You to Duckload.us For This Useful Post:

    neorun (04-19-2021)

  3. #2
    Member
    สมัครเมื่อ
    Jul 2013
    โพสต์
    55
    Thanks
    112
    Thanked 1 Time in 1 Post
    X-men ในบรรยากาศย้อนยุค
    ขอบคุณมากครับ

  4. #3
    Administrators รูปส่วนตัว Duckload.us
    สมัครเมื่อ
    Dec 2010
    โพสต์
    126,387
    Thanks
    7
    Thanked 130,975 Times in 58,016 Posts
    The Nevers 2021 S01E01-04

+ ตอบกลับกระทู้

ข้อมูลกระทู้

Users Browsing this Thread

ในขณะนี้มี 1 ท่านดูกระทู้อยู่. (0 สมาชิกและ 1 ผู้เยี่ยมชม)

     

กฎการโพสต์ข้อความ

  • ท่าน ไม่สามารถ ตั้งกระทู้ใหม่ได้
  • ท่าน ไม่สามารถ ตอบกระทู้ได้
  • ท่าน ไม่สามารถ แนบไฟล์ได้
  • ท่าน ไม่สามารถ แก้ไขข้อความโพสต์ได้
  • BB code สถานะ เปิด
  • Smilies สถานะ เปิด
  • [IMG] สถานะ เปิด
  • HTML สถานะ ปิด