+ ตอบกลับกระทู้
สรุปผลการค้นหา 1 ถึง 6 จากทั้งหมด 6
  1. #1
    Administrators รูปส่วนตัว Duckload.us
    สมัครเมื่อ
    Dec 2010
    โพสต์
    129,849
    Thanks
    7
    Thanked 133,720 Times in 59,214 Posts

    Thumbs up [ฝรั่ง]-[Netflix] Shadow And Bone (2021) ตำนานกรีชา Season 1 [เสียง:อังกฤษ-ไทย AC-3 5.1][บรรยาย: ไทย PGS/SRT-อังกฤษ SRT Netflix]-WEB-DL.H.264.1080p. [From HD-TV]-[พากย์ไทย บรรยายไทย]




    Shadow and Bone (ตำนานกรีชา) เป็นซีรีส์ที่สร้างจากนิยายชุดตำนานกรีชา ที่ติดอันดับขายดีที่สุดทั่วโลกของลีห์ บาร์ดูโก โดยบอกเล่าเรื่องราวของโลกที่บอบช้ำจากสงคราม อาลินา สตาร์คอฟ (เจสซี่ เมย์ ลี) เด็กกำพร้าและทหารผู้ต่ำต้อย เธอได้ปลดปล่อยพลังพิเศษที่อาจเป็นกุญแจสำคัญในการกู ้อิสรภาพให้กับประเทศของเธอ ขณะที่แดนพยับเงาขนาดมหึมากำลังคืบคลานเข้ามา อาลินาต้องพรากจากทุกสิ่งทุกอย่างที่เธอรู้จักคุ้นเค ยเพื่อเข้ารับการฝึกร่วมกับกองทัพทหารระดับสูงผู้มีพ ลังพิเศษที่รู้จักกันในนามว่ากรีชา แต่ขณะที่พยายามฝึกฝนการใช้พลังอยู่นั้น เธอกลับพบว่าพันธมิตรและศัตรูอาจเป็นคนคนเดียวกัน และโลกที่สวยหรูนี้ไม่ได้เป็นอย่างที่เห็นเลยแม้แต่น ้อย หากแต่มีอำนาจร้ายแรง รวมถึงเหล่าอาชญากรพราวเสน่ห์ปะปนอยู่ด้วย และอาจต้องพึ่งสิ่งที่เหนือกว่าเวทมนตร์เพื่อหาทางเอ าชีวิตรอด

    Video
    ID : 1
    Format : AVC
    Format/Info : Advanced Video Codec
    Format profile : [email protected]
    Format settings : CABAC / 4 Ref Frames
    Format settings, CABAC : Yes
    Format settings, Reference fra : 4 frames
    Codec ID : V_MPEG4/ISO/AVC
    Duration : 52 min 19 s
    Bit rate : 2 683 kb/s
    Width : 1 920 pixels
    Height : 1 080 pixels
    Display aspect ratio : 16:9
    Frame rate mode : Constant
    Frame rate : 23.976 (24000/1001) FPS
    Color space : YUV
    Chroma subsampling : 4:2:0
    Bit depth : 8 bits
    Scan type : Progressive
    Bits/(Pixel*Frame) : 0.054
    Stream size : 1 004 MiB (67%)
    Default : Yes
    Forced : No

    Audio #1
    ID : 2
    Format : E-AC-3
    Format/Info : Enhanced AC-3
    Commercial name : Dolby Digital Plus
    Codec ID : A_EAC3
    Duration : 52 min 20 s
    Bit rate mode : Constant
    Bit rate : 640 kb/s
    Channel(s) : 6 channels
    Channel layout : L R C LFE Ls Rs
    Sampling rate : 48.0 kHz
    Frame rate : 31.250 FPS (1536 SPF)
    Compression mode : Lossy
    Stream size : 240 MiB (16%)
    Title : [Thai-AC-3]
    Language : Thai
    Service kind : Complete Main
    Default : Yes
    Forced : No

    Audio #2
    ID : 3
    Format : E-AC-3
    Format/Info : Enhanced AC-3
    Commercial name : Dolby Digital Plus
    Codec ID : A_EAC3
    Duration : 52 min 20 s
    Bit rate mode : Constant
    Bit rate : 640 kb/s
    Channel(s) : 6 channels
    Channel layout : L R C LFE Ls Rs
    Sampling rate : 48.0 kHz
    Frame rate : 31.250 FPS (1536 SPF)
    Compression mode : Lossy
    Stream size : 240 MiB (16%)
    Title : [English-AC-3]
    Language : English
    Service kind : Complete Main
    Default : No
    Forced : No

    Text #1
    ID : 4
    Format : PGS
    Muxing mode : zlib
    Codec ID : S_HDMV/PGS
    Codec ID/Info : Picture based subtitle format used on BDs/HD-DVDs
    Duration : 50 min 23 s
    Bit rate : 421 b/s
    Count of elements : 12
    Stream size : 156 KiB (0%)
    Title : [Thai Netflix Forced PGS]
    Language : Thai
    Default : Yes
    Forced : No

    Text #2
    ID : 5
    Format : PGS
    Muxing mode : zlib
    Codec ID : S_HDMV/PGS
    Codec ID/Info : Picture based subtitle format used on BDs/HD-DVDs
    Duration : 50 min 23 s
    Bit rate : 41.0 kb/s
    Count of elements : 1180
    Stream size : 14.8 MiB (1%)
    Title : [Thai Netflix PGS]
    Language : Thai
    Default : No
    Forced : No

    Text #3
    ID : 6
    Format : UTF-8
    Codec ID : S_TEXT/UTF8
    Codec ID/Info : UTF-8 Plain Text
    Duration : 50 min 23 s
    Bit rate : 1 b/s
    Count of elements : 6
    Stream size : 466 Bytes (0%)
    Title : SRT Forced
    Language : Thai
    Default : No
    Forced : No

    Text #4
    ID : 7
    Format : UTF-8
    Codec ID : S_TEXT/UTF8
    Codec ID/Info : UTF-8 Plain Text
    Duration : 50 min 23 s
    Bit rate : 124 b/s
    Count of elements : 590
    Stream size : 46.1 KiB (0%)
    Title : SRT
    Language : Thai
    Default : No
    Forced : No

    Text #5
    ID : 8
    Format : UTF-8
    Codec ID : S_TEXT/UTF8
    Codec ID/Info : UTF-8 Plain Text
    Duration : 46 min 6 s
    Bit rate : 63 b/s
    Count of elements : 673
    Stream size : 21.5 KiB (0%)
    Title : SRT
    Language : English
    Default : No
    Forced : No






    Download:cornfile
    Shadow.and.Bone.ตำนานกรีชา.S01E01.ประกายแสงจ้าที่แ ผดเผา.1080p.mkv - 1.5 GB
    Shadow.and.Bone.ตำนานกรีชา.S01E02.เราต่างเป็นปีศาจ ในสายตาใครของสักคน.1080p.mkv - 1.4 GB
    Shadow.and.Bone.ตำนานกรีชา.S01E03.ขุมพลังที่บันดาล สรรพสิ่ง.1080p.mkv - 1.4 GB
    Shadow.and.Bone.ตำนานกรีชา.S01E04.ชีวิตที่ถูกทอดทิ ้ง.1080p.mkv - 1.4 GB
    Shadow.and.Bone.ตำนานกรีชา.S01E05.จงแสดงพลังของเจ้ า.1080p.mkv - 1.7 GB
    Shadow.and.Bone.ตำนานกรีชา.S01E06.หัวใจดั่งลูกศร.1 080p.mkv - 1.6 GB
    Shadow.and.Bone.ตำนานกรีชา.S01E07.ทะเลปลอม.1080p.m kv - 1.4 GB
    Shadow.and.Bone.ตำนานกรีชา.S01E08.จะไม่มีใครต้องเส ียใจ.1080p.mkv - 1.2 GB

    Download:filecondo
    1 http://www.filecondo.com/dl.php?f=5b42fe1LAfvi
    2 http://www.filecondo.com/dl.php?f=ica9ff1LAfwx
    3 http://www.filecondo.com/dl.php?f=u3935d1LAfxe
    4 http://www.filecondo.com/dl.php?f=V748b21LAfyc
    5 http://www.filecondo.com/dl.php?f=Z27c661LAfzs
    6 http://www.filecondo.com/dl.php?f=E1c7b01LAfAs
    7 http://www.filecondo.com/dl.php?f=L9e0f21LAfB6
    8 http://www.filecondo.com/dl.php?f=id7e9d1LAfC3

  2. The Following 4 Users Say Thank You to Duckload.us For This Useful Post:

    agaligo (04-26-2021), gaszolineskywalker (05-11-2021), Wesker_TOT (04-27-2021), whiteherbie (05-03-2021)

  3. #2
    Senior Member
    สมัครเมื่อ
    Jul 2013
    โพสต์
    2,517
    Thanks
    0
    Thanked 0 Times in 0 Posts
    ขอบคุณครับ

  4. #3
    Senior Member
    สมัครเมื่อ
    Jul 2012
    โพสต์
    7,626
    Thanks
    0
    Thanked 0 Times in 0 Posts
    ขอบคุณมากจ้า

  5. #4
    Senior Member
    สมัครเมื่อ
    Dec 2013
    โพสต์
    3,161
    Thanks
    5,077
    Thanked 0 Times in 0 Posts
    ขอบคุณนะครับ...

  6. #5
    Senior Member
    สมัครเมื่อ
    Dec 2011
    โพสต์
    2,515
    Thanks
    75
    Thanked 0 Times in 0 Posts
    ขอบคุณค่ะ

  7. #6
    Senior Member
    สมัครเมื่อ
    Oct 2012
    โพสต์
    1,619
    Thanks
    2,551
    Thanked 0 Times in 0 Posts
    ขอบคุณครับ

+ ตอบกลับกระทู้

ข้อมูลกระทู้

Users Browsing this Thread

ในขณะนี้มี 1 ท่านดูกระทู้อยู่. (0 สมาชิกและ 1 ผู้เยี่ยมชม)

     

กฎการโพสต์ข้อความ

  • ท่าน ไม่สามารถ ตั้งกระทู้ใหม่ได้
  • ท่าน ไม่สามารถ ตอบกระทู้ได้
  • ท่าน ไม่สามารถ แนบไฟล์ได้
  • ท่าน ไม่สามารถ แก้ไขข้อความโพสต์ได้
  • BB code สถานะ เปิด
  • Smilies สถานะ เปิด
  • [IMG] สถานะ เปิด
  • HTML สถานะ ปิด