+ ตอบกลับกระทู้
สรุปผลการค้นหา 1 ถึง 2 จากทั้งหมด 2
  1. #1
    Administrators รูปส่วนตัว Duckload.us
    สมัครเมื่อ
    Dec 2010
    โพสต์
    126,387
    Thanks
    7
    Thanked 130,971 Times in 58,014 Posts

    Angry [ฝรั่ง]-Patton (1970) นายพลกระดูกเหล็ก - [พากย์ไทย+อังกฤษ] [บรรยายไทย+อังกฤษ] BDRemux.1080p.DTS-HD.MA.5.1.x264



    นำเสนอภาพชีวิตของ นายพลจอร์จ แพ็ตตัน (จอร์จ ซี. สก็อตต์) หนึ่งในสุดยอดนักรบที่เก่งกาจที่สุดในประวัติศาสตร์ แพ็ตตัน ผู้เชื่อว่าตนเองคือยอดนักรบในชาติก่อน คือนายทหารฝ่ายสัมพันธมิตรเพียงคนเดียว ที่สร้างความหวาดหวั่นให้แก่ทหารนาซี เขาพิชิตนายพลรอมเมลในแอฟริกา แล้วจึงนำกองทหารของตนตะลุยทั่วยุโรปหลังวันดี-เดย์ แต่ภายใต้ความปราดเปรื่องของเขา ยังมีความบ้าคลั่งและดื้อรั้นซ่อนอยู่ ทั้งนี้อารมณ์ของตัวเองคือศัตรูตัวเดียวที่เขาไม่สาม ารถเอาชนะได้ ภาพยนตร์สงครามเรื่องยิ่งใหญ่ ชนะเลิศ 7 รางวัลออสการ์ประจำปี 1970 รวมทั้งสาขาภาพยนตร์ยอดเยี่ยม


    Duration : 2 h 51 min
    Overall bit rate mode : Variable
    Overall bit rate : 29.6 Mb/s
    Encoded date : UTC 2021-04-24 07:06:14
    Writing application : mkvmerge v56.1.0 ('My Friend') 64-bit
    Writing library : libebml v1.4.2 + libmatroska v1.6.4
    Cover : Yes
    Attachments : cover

    Video
    ID : 1
    ID in the original source medium : 4113 (0x1011)
    Format : AVC
    Format/Info : Advanced Video Codec
    Format profile : [email protected]
    Format settings : CABAC / 3 Ref Frames
    Format settings, CABAC : Yes
    Format settings, Reference frames : 3 frames
    Format settings, GOP : M=3, N=24
    Codec ID : V_MPEG4/ISO/AVC
    Duration : 2 h 51 min
    Bit rate mode : Variable
    Bit rate : 23.0 Mb/s
    Maximum bit rate : 40.0 Mb/s
    Width : 1 920 pixels
    Height : 1 080 pixels
    Display aspect ratio : 16:9
    Frame rate mode : Constant
    Frame rate : 23.976 (24000/1001) FPS
    Color space : YUV
    Chroma subsampling : 4:2:0
    Bit depth : 8 bits
    Scan type : Progressive
    Bits/(Pixel*Frame) : 0.462
    Stream size : 27.6 GiB (77%)
    Language : English
    Default : No
    Forced : No
    Original source medium : Blu-ray

    Audio #1
    ID : 2
    ID in the original source medium : 4356 (0x1104)
    Format : DTS XLL
    Format/Info : Digital Theater Systems
    Commercial name : DTS-HD Master Audio
    Codec ID : A_DTS
    Duration : 2 h 51 min
    Bit rate mode : Variable
    Bit rate : 3 826 kb/s
    Channel(s) : 6 channels
    Channel layout : C L R Ls Rs LFE
    Sampling rate : 48.0 kHz
    Frame rate : 93.750 FPS (512 SPF)
    Bit depth : 24 bits
    Compression mode : Lossless
    Delay relative to video : 3 ms
    Stream size : 4.60 GiB (13%)
    Title : DTS-HD Master Audio
    Language : English
    Default : No
    Forced : No
    Original source medium : Blu-ray

    Audio #2
    ID : 3
    ID in the original source medium : 4356 (0x1104)
    Format : DTS
    Format/Info : Digital Theater Systems
    Codec ID : A_DTS
    Duration : 2 h 51 min
    Bit rate mode : Constant
    Bit rate : 1 509 kb/s
    Channel(s) : 6 channels
    Channel layout : C L R Ls Rs LFE
    Sampling rate : 48.0 kHz
    Frame rate : 93.750 FPS (512 SPF)
    Bit depth : 24 bits
    Compression mode : Lossy
    Delay relative to video : 3 ms
    Stream size : 1.81 GiB (5%)
    Title : Digital Theater Systems
    Language : English
    Default : No
    Forced : No
    Original source medium : Blu-ray

    Audio #3
    ID : 4
    Format : AAC LC
    Format/Info : Advanced Audio Codec Low Complexity
    Codec ID : A_AAC-2
    Duration : 2 h 51 min
    Bit rate : 442 kb/s
    Channel(s) : 6 channels
    Channel layout : C L R Ls Rs LFE
    Sampling rate : 48.0 kHz
    Frame rate : 46.875 FPS (1024 SPF)
    Compression mode : Lossy
    Delay relative to video : 20 ms
    Stream size : 544 MiB (1%)
    Title : Advanced Audio Codec Low Complexity
    Language : English
    Default : No
    Forced : No

    Audio #4
    ID : 5
    ID in the original source medium : 4357 (0x1105)
    Format : AC-3
    Format/Info : Audio Coding 3
    Commercial name : Dolby Digital
    Codec ID : A_AC3
    Duration : 2 h 51 min
    Bit rate mode : Constant
    Bit rate : 224 kb/s
    Channel(s) : 2 channels
    Channel layout : L R
    Sampling rate : 48.0 kHz
    Frame rate : 31.250 FPS (1536 SPF)
    Compression mode : Lossy
    Delay relative to video : 24 ms
    Stream size : 276 MiB (1%)
    Title : Audio Coding 3 Commentary by the s--criptwriter Francis Ford Coppola
    Language : English
    Service kind : Complete Main
    Default : No
    Forced : No
    Original source medium : Blu-ray

    Audio #5
    ID : 6
    Format : AC-3
    Format/Info : Audio Coding 3
    Commercial name : Dolby Digital
    Codec ID : A_AC3
    Duration : 2 h 51 min
    Bit rate mode : Constant
    Bit rate : 640 kb/s
    Channel(s) : 6 channels
    Channel layout : L R C LFE Ls Rs
    Sampling rate : 48.0 kHz
    Frame rate : 31.250 FPS (1536 SPF)
    Compression mode : Lossy
    Stream size : 787 MiB (2%)
    Title : Audio Coding 3
    Language : Thai
    Service kind : Complete Main
    Default : Yes
    Forced : No

    Text #1
    ID : 7
    Format : VobSub
    Muxing mode : zlib
    Codec ID : S_VOBSUB
    Codec ID/Info : Picture based subtitle format used on DVDs
    Duration : 2 h 50 min
    Bit rate : 10.1 kb/s
    Count of elements : 1639
    Stream size : 12.3 MiB (0%)
    Title : English (SDH)
    Language : English
    Default : No
    Forced : No

    Text #2
    ID : 8
    Format : UTF-8
    Codec ID : S_TEXT/UTF8
    Codec ID/Info : UTF-8 Plain Text
    Duration : 2 h 50 min
    Bit rate : 56 b/s
    Count of elements : 1639
    Stream size : 71.0 KiB (0%)
    Title : English (SDH)
    Language : English
    Default : No
    Forced : No

    Text #3
    ID : 9
    Format : PGS
    Muxing mode : zlib
    Codec ID : S_HDMV/PGS
    Codec ID/Info : Picture based subtitle format used on BDs/HD-DVDs
    Duration : 2 h 50 min
    Bit rate : 32.3 kb/s
    Count of elements : 3278
    Stream size : 39.3 MiB (0%)
    Title : English (SDH)
    Language : English
    Default : Yes
    Forced : No

    Text #4
    ID : 10
    Format : UTF-8
    Codec ID : S_TEXT/UTF8
    Codec ID/Info : UTF-8 Plain Text
    Duration : 2 h 50 min
    Bit rate : 107 b/s
    Count of elements : 1617
    Stream size : 134 KiB (0%)
    Title : Thai
    Language : Thai
    Default : No
    Forced : No

    Text #5
    ID : 11
    Format : PGS
    Muxing mode : zlib
    Codec ID : S_HDMV/PGS
    Codec ID/Info : Picture based subtitle format used on BDs/HD-DVDs
    Duration : 2 h 50 min
    Bit rate : 23.7 kb/s
    Count of elements : 3234
    Stream size : 28.9 MiB (0%)
    Title : Thai
    Language : Thai
    Default : No
    Forced : No

    Text #6
    ID : 12
    Format : VobSub
    Muxing mode : zlib
    Codec ID : S_VOBSUB
    Codec ID/Info : Picture based subtitle format used on DVDs
    Duration : 2 h 50 min
    Bit rate : 7 314 b/s
    Count of elements : 1617
    Stream size : 8.91 MiB (0%)
    Title : Thai
    Language : Thai
    Default : No
    Forced : No

    Menu
    00:00:00.000 : Stars And Stripes
    00:06:19.670 : Main Titles
    00:08:21.918 : Kasserine Pass, Tunisia, 1943
    00:12:05.599 : The Bible And Hollywood
    00:15:01.817 : In Like A Lion
    00:24:00.230 : The General Takes Charge
    00:27:28.563 : 2,000 Years Ago
    00:30:26.157 : Field Marshall Erwin Rommel
    00:32:30.531 : Complete Air Supremacy
    00:36:52.084 : An Engraved Invitation
    00:39:30.117 : A Desperate Battle
    00:53:58.318 : A Sixteenth-Century Man
    00:56:35.767 : An Interesting Plan
    01:00:34.630 : The Algerian Lavatory
    01:05:13.367 : A Simple Old Soldier
    01:08:03.954 : Patton Takes Palermo
    01:14:06.608 : Doing The Impossible
    01:18:29.830 : Old Blood And Guts
    01:23:38.763 : To Shame A Coward
    01:27:57.438 : Taking Messina
    01:31:21.392 : An Iron Boot
    01:40:45.956 : Intermission
    01:43:14.187 : Vive La France
    01:48:20.869 : On Probation
    01:56:29.774 : Our War Is Over
    02:00:27.178 : Man Without An Army
    02:06:02.721 : Back In The Saddle
    02:08:50.931 : A Pain In The Neck
    02:12:58.261 : Out Of Gas
    02:19:15.054 : The Heart Of Germany
    02:25:41.732 : Bound For Bastagne
    02:30:16.298 : A Weather Prayer
    02:35:36.243 : The Pure Warrior
    02:37:09.086 : Victory
    02:40:46.678 : Q & A
    02:45:53.443 : All Glory Is Fleeting
    02:50:41.063 : End Titles




    http://cornfile.com/bgqx3r45qjd2

  2. #2
    Senior Member
    สมัครเมื่อ
    Jun 2014
    โพสต์
    5,292
    Thanks
    0
    Thanked 0 Times in 0 Posts
    ขอบคุณครับ

+ ตอบกลับกระทู้

ข้อมูลกระทู้

Users Browsing this Thread

ในขณะนี้มี 1 ท่านดูกระทู้อยู่. (0 สมาชิกและ 1 ผู้เยี่ยมชม)

     

กฎการโพสต์ข้อความ

  • ท่าน ไม่สามารถ ตั้งกระทู้ใหม่ได้
  • ท่าน ไม่สามารถ ตอบกระทู้ได้
  • ท่าน ไม่สามารถ แนบไฟล์ได้
  • ท่าน ไม่สามารถ แก้ไขข้อความโพสต์ได้
  • BB code สถานะ เปิด
  • Smilies สถานะ เปิด
  • [IMG] สถานะ เปิด
  • HTML สถานะ ปิด