หลักการส่วนตัวและความภักดีต่อพรรคของมุขยมนตรีแห่งเ กรละผู้เป็นที่เกรงขามได้รับการทดสอบเมื่อโพสต์อื้อฉ าวบนสังคมออนไลน์ก่อให้เกิดการคานอำนาจอย่างดุเดือด

Format : Matroska
Format version : Version 4
File size : 4.83 GiB
Duration : 2 h 29 min
Overall bit rate : 4 635 kb/s
Encoded date : UTC 2021-04-27 12:52:43
Writing application : mkvmerge v56.1.0 ('My Friend') 64-bit
Writing library : libebml v1.4.2 + libmatroska v1.6.4

Video
ID : 1
Format : AVC
Format/Info : Advanced Video Codec
Format profile : [email protected]
Format settings : CABAC / 3 Ref Frames
Format settings, CABAC : Yes
Format settings, Reference : 3 frames
Codec ID : V_MPEG4/ISO/AVC
Duration : 2 h 29 min
Bit rate : 3 890 kb/s
Width : 1 920 pixels
Height : 816 pixels
Display aspect ratio : 2.35:1
Frame rate mode : Constant
Frame rate : 24.000 FPS
Color space : YUV
Chroma subsampling : 4:2:0
Bit depth : 8 bits
Scan type : Progressive
Bits/(Pixel*Frame) : 0.103
Stream size : 4.05 GiB (84%)
Language : Malayalam
Default : Yes
Forced : No

Audio
ID : 2
Format : E-AC-3
Format/Info : Enhanced AC-3
Commercial name : Dolby Digital Plus
Codec ID : A_EAC3
Duration : 2 h 29 min
Bit rate mode : Constant
Bit rate : 640 kb/s
Channel(s) : 6 channels
Channel layout : L R C LFE Ls Rs
Sampling rate : 48.0 kHz
Frame rate : 31.250 FPS (1536 SPF)
Compression mode : Lossy
Stream size : 683 MiB (14%)
Title : E-AC3 Malayalam
Language : Malayalam
Service kind : Complete Main
Default : Yes
Forced : No

Text #1
ID : 3
Format : VobSub
Muxing mode : zlib
Codec ID : S_VOBSUB
Codec ID/Info : Picture based subtitle format used on DVDs
Duration : 2 h 29 min
Bit rate : 14.6 kb/s
Count of elements : 1964
Stream size : 15.6 MiB (0%)
Title : Sub Thai 1080p
Language : Thai
Default : No
Forced : No

Text #2
ID : 4
Format : UTF-8
Codec ID : S_TEXT/UTF8
Codec ID/Info : UTF-8 Plain Text
Duration : 2 h 29 min
Bit rate : 149 b/s
Count of elements : 1964
Stream size : 163 KiB (0%)
Title : Sub Thai SRT
Language : Thai
Default : No
Forced : No

Text #3
ID : 5
Format : PGS
Muxing mode : zlib
Codec ID : S_HDMV/PGS
Codec ID/Info : Picture based subtitle format used on BDs/HD-DVDs
Duration : 2 h 29 min
Bit rate : 42.6 kb/s
Count of elements : 3928
Stream size : 45.5 MiB (1%)
Title : Sub Thai PGS
Language : Thai
Default : No
Forced : No

Text #4
ID : 6
Format : PGS
Muxing mode : zlib
Codec ID : S_HDMV/PGS
Codec ID/Info : Picture based subtitle format used on BDs/HD-DVDs
Duration : 2 h 29 min
Bit rate : 70.8 kb/s
Count of elements : 3928
Stream size : 75.4 MiB (2%)
Title : Sub Thai PGS NETFLIX
Language : Thai
Default : Yes
Forced : No

Text #5
ID : 7
Format : VobSub
Muxing mode : zlib
Codec ID : S_VOBSUB
Codec ID/Info : Picture based subtitle format used on DVDs
Duration : 2 h 24 min
Bit rate : 15.1 kb/s
Count of elements : 1895
Stream size : 15.7 MiB (0%)
Title : Sub English 1080p
Language : English
Default : No
Forced : No

Text #6
ID : 8
Format : UTF-8
Codec ID : S_TEXT/UTF8
Codec ID/Info : UTF-8 Plain Text
Duration : 2 h 24 min
Bit rate : 70 b/s
Count of elements : 1895
Stream size : 74.5 KiB (0%)
Title : Sub English SRT
Language : English
Default : No
Forced : No

Text #7
ID : 9
Format : PGS
Muxing mode : zlib
Codec ID : S_HDMV/PGS
Codec ID/Info : Picture based subtitle format used on BDs/HD-DVDs
Duration : 2 h 24 min
Bit rate : 41.2 kb/s
Count of elements : 3790
Stream size : 42.7 MiB (1%)
Title : Sub English PGS
Language : English
Default : No
Forced : No






Download:cornfile
http://cornfile.com/akngeu8z5im7
Download:filecondo
http://www.filecondo.com/dl.php?f=t0ba931LBKeW