+ ตอบกลับกระทู้
สรุปผลการค้นหา 1 ถึง 4 จากทั้งหมด 4
  1. #1
    Administrators รูปส่วนตัว Duckload.us
    สมัครเมื่อ
    Dec 2010
    โพสต์
    127,911
    Thanks
    7
    Thanked 132,098 Times in 58,486 Posts

    Thumbs up [ฝรั่ง]-[Netflix] Jupiters Legacy (2021) จูปิเตอร์ส เลกาซี่ Season 1 [เสียง:อังกฤษ-ไทย AC-3 5.1][บรรยาย: ไทย PGS/SRT-อังกฤษ SRT Netflix]-WEB-DL.H.264.1080p. [From HD-TV]-[พากย์ไทย บรรยายไทย]






    Jupiter’s Legacy เป็นเรื่องราวของซูเปอร์ฮีโร่คนแรกของโลกที่ได้รับพล ังในช่วงทศวรรษที่ 1930 ซึ่งในยุคปัจจุบันพวกเขาถือว่าเป็นฮีโร่ที่หลายคนเคา รพนับถือ แต่ลูกของเหล่าฮีโร่ที่ได้รับพลังสืบทอดมา กลับต้องรับภาระที่ไม่เต็มใจนักที่จะสานตำนานของผู้ท ี่เป็นพ่อและแม่ โดย Chloe และ Brandon Sampson (ลูกของ Utopian และ Lady Liberty) ถึงแม้พวกเขาจะมีพลังพิเศษ แต่ก็ไม่ได้อยากที่จะเป็นฮีโร่แบบพ่อและแม่ เนื่องจากในยุคที่พวกเขาใช้ชีวิตอยู่ โลกก็มีความสงบสุขดี ซีรีส์จะเล่าเรื่องราวที่เน้นความดราม่าของครอบครัวฮ ีโร่ ความไม่เข้าใจกันของคนที่เป็นพ่อแม่และลูกๆ ที่ดูเหมือนจะมองโลกคนละยุค

    Video
    ID : 1
    Format : AVC
    Format/Info : Advanced Video Codec
    Format profile : [email protected]
    Format settings : CABAC / 4 Ref Frames
    Format settings, CABAC : Yes
    Format settings, Reference fra : 4 frames
    Codec ID : V_MPEG4/ISO/AVC
    Duration : 47 min 31 s
    Bit rate : 3 388 kb/s
    Width : 1 920 pixels
    Height : 1 080 pixels
    Display aspect ratio : 16:9
    Frame rate mode : Constant
    Frame rate : 23.976 (24000/1001) FPS
    Color space : YUV
    Chroma subsampling : 4:2:0
    Bit depth : 8 bits
    Scan type : Progressive
    Bits/(Pixel*Frame) : 0.068
    Stream size : 1.12 GiB (72%)
    Default : Yes
    Forced : No

    Audio #1
    ID : 2
    Format : E-AC-3
    Format/Info : Enhanced AC-3
    Commercial name : Dolby Digital Plus
    Codec ID : A_EAC3
    Duration : 47 min 31 s
    Bit rate mode : Constant
    Bit rate : 640 kb/s
    Channel(s) : 6 channels
    Channel layout : L R C LFE Ls Rs
    Sampling rate : 48.0 kHz
    Frame rate : 31.250 FPS (1536 SPF)
    Compression mode : Lossy
    Stream size : 218 MiB (14%)
    Title : [Thai-AC-3]
    Language : Thai
    Service kind : Complete Main
    Default : Yes
    Forced : No

    Audio #2
    ID : 3
    Format : E-AC-3
    Format/Info : Enhanced AC-3
    Commercial name : Dolby Digital Plus
    Codec ID : A_EAC3
    Duration : 47 min 31 s
    Bit rate mode : Constant
    Bit rate : 640 kb/s
    Channel(s) : 6 channels
    Channel layout : L R C LFE Ls Rs
    Sampling rate : 48.0 kHz
    Frame rate : 31.250 FPS (1536 SPF)
    Compression mode : Lossy
    Stream size : 218 MiB (14%)
    Title : [English-AC-3]
    Language : English
    Service kind : Complete Main
    Default : No
    Forced : No

    Text #1
    ID : 4
    Format : PGS
    Muxing mode : zlib
    Codec ID : S_HDMV/PGS
    Codec ID/Info : Picture based subtitle format used on BDs/HD-DVDs
    Duration : 37 min 16 s
    Bit rate : 261 b/s
    Count of elements : 14
    Stream size : 71.5 KiB (0%)
    Title : [Thai Netflix Forced PGS]
    Language : Thai
    Default : Yes
    Forced : No

    Text #2
    ID : 5
    Format : PGS
    Muxing mode : zlib
    Codec ID : S_HDMV/PGS
    Codec ID/Info : Picture based subtitle format used on BDs/HD-DVDs
    Duration : 45 min 30 s
    Bit rate : 25.6 kb/s
    Count of elements : 1226
    Stream size : 8.33 MiB (1%)
    Title : [Thai Netflix PGS]
    Language : Thai
    Default : No
    Forced : No

    Text #3
    ID : 6
    Format : UTF-8
    Codec ID : S_TEXT/UTF8
    Codec ID/Info : UTF-8 Plain Text
    Duration : 37 min 16 s
    Bit rate : 1 b/s
    Count of elements : 7
    Stream size : 334 Bytes (0%)
    Title : SRT Forced
    Language : Thai
    Default : No
    Forced : No

    Text #4
    ID : 7
    Format : UTF-8
    Codec ID : S_TEXT/UTF8
    Codec ID/Info : UTF-8 Plain Text
    Duration : 45 min 30 s
    Bit rate : 139 b/s
    Count of elements : 613
    Stream size : 46.5 KiB (0%)
    Title : SRT
    Language : Thai
    Default : No
    Forced : No

    Text #5
    ID : 8
    Format : UTF-8
    Codec ID : S_TEXT/UTF8
    Codec ID/Info : UTF-8 Plain Text
    Duration : 43 min 38 s
    Bit rate : 77 b/s
    Count of elements : 771
    Stream size : 24.9 KiB (0%)
    Title : SRT
    Language : English
    Default : No
    Forced : No










    Download:cornfile
    Jupiter's.Legacy.จูปิเตอร์ส.เลกาซี่.S01E01.เบิกฟ้า วันใหม่.1080p.mkv - 1.6 GB
    Jupiter's.Legacy.จูปิเตอร์ส.เลกาซี่.S01E02.กระดาษก ับค้อน.1080p.mkv - 965.7 MB
    Jupiter's.Legacy.จูปิเตอร์ส.เลกาซี่.S01E03.มองโลกใ ห้สดใสเข้าไว้.1080p.mkv - 1.6 GB
    Jupiter's.Legacy.จูปิเตอร์ส.เลกาซี่.S01E04.ปัญหารุ มเร้า.1080p.mkv - 1.8 GB
    Jupiter's.Legacy.จูปิเตอร์ส.เลกาซี่.S01E05.เปล่าปร ะโยชน์.1080p.mkv - 1.4 GB
    Jupiter's.Legacy.จูปิเตอร์ส.เลกาซี่.S01E06.เลือนลั บไป.1080p.mkv - 1.6 GB
    Jupiter's.Legacy.จูปิเตอร์ส.เลกาซี่.S01E07.รวมกันเ ป็นหนึ่ง.1080p.mkv - 1.8 GB
    Jupiter's.Legacy.จูปิเตอร์ส.เลกาซี่.S01E08.บทลงเอย .1080p.mkv - 1.2 GB

    Download:filecondo
    1 http://www.filecondo.com/dl.php?f=o6299c1LFgi9
    2 http://www.filecondo.com/dl.php?f=Jaa3931LFgoJ
    3 http://www.filecondo.com/dl.php?f=t486271LFgpP
    4 http://www.filecondo.com/dl.php?f=pdd3d81LFgqX
    5 http://www.filecondo.com/dl.php?f=ye59321LFgrK
    6 http://www.filecondo.com/dl.php?f=19ca551LFgsI
    7 http://www.filecondo.com/dl.php?f=zd7f501LFgtI
    8 http://www.filecondo.com/dl.php?f=Eacb1a1LFguA

  2. The Following 3 Users Say Thank You to Duckload.us For This Useful Post:

    gaszolineskywalker (05-11-2021), kappa (05-09-2021), Wesker_TOT (05-09-2021)

  3. #2
    Senior Member
    สมัครเมื่อ
    Dec 2013
    โพสต์
    3,000
    Thanks
    4,919
    Thanked 0 Times in 0 Posts
    ขอบคุณครับ...

  4. #3
    Senior Member
    สมัครเมื่อ
    Jul 2013
    โพสต์
    2,281
    Thanks
    0
    Thanked 0 Times in 0 Posts
    ขอบคุณครับ

  5. #4
    Senior Member
    สมัครเมื่อ
    Oct 2012
    โพสต์
    1,533
    Thanks
    2,461
    Thanked 0 Times in 0 Posts
    ขอบคุณครับ

+ ตอบกลับกระทู้

ข้อมูลกระทู้

Users Browsing this Thread

ในขณะนี้มี 1 ท่านดูกระทู้อยู่. (0 สมาชิกและ 1 ผู้เยี่ยมชม)

     

กฎการโพสต์ข้อความ

  • ท่าน ไม่สามารถ ตั้งกระทู้ใหม่ได้
  • ท่าน ไม่สามารถ ตอบกระทู้ได้
  • ท่าน ไม่สามารถ แนบไฟล์ได้
  • ท่าน ไม่สามารถ แก้ไขข้อความโพสต์ได้
  • BB code สถานะ เปิด
  • Smilies สถานะ เปิด
  • [IMG] สถานะ เปิด
  • HTML สถานะ ปิด