+ ตอบกลับกระทู้
สรุปผลการค้นหา 1 ถึง 5 จากทั้งหมด 5
  1. #1
    Administrators รูปส่วนตัว Duckload.us
    สมัครเมื่อ
    Dec 2010
    โพสต์
    127,911
    Thanks
    7
    Thanked 132,098 Times in 58,486 Posts

    Thumbs up [ฝรั่ง]- The Outpost (2020) ฝ่ายุทธภูมิล้อมตาย [เสียง:อังกฤษ DTS-ไทย HBO][บรรยาย: ไทย HBO PGS-อังกฤษ PGS]-Blu-ray.H.264.1080p. [Modified]-[พากย์ไทย บรรยายไทย]



    เรื่องย่อ
    จากเรื่องจริงสุดเหลือเชื่อของภารกิจเสี่ยงตายในอัฟก านิสถาน เมื่อทหารจำนวน 54 คน ถูกล้อมด้วยกองกำลังตาลีบันกว่า 400 คน ในเขตแดนที่ไม่มีทางออกและอันตรายที่สุดในโลก หนทางเดียวที่จะรอด คือต้องสู้ และฝ่ายุทธภูมิล้อมตายนี้ไปให้ได้!


    Video
    ID : 1
    Format : AVC
    Format/Info : Advanced Video Codec
    Format profile : [email protected]
    Format settings : CABAC / 4 Ref Frames
    Format settings, CABAC : Yes
    Format settings, Reference fra : 4 frames
    Codec ID : V_MPEG4/ISO/AVC
    Duration : 2 h 3 min
    Bit rate : 2 500 kb/s
    Width : 1 920 pixels
    Height : 1 038 pixels
    Display aspect ratio : 1.85:1
    Frame rate mode : Constant
    Frame rate : 23.976 (23976/1000) FPS
    Color space : YUV
    Chroma subsampling : 4:2:0
    Bit depth : 8 bits
    Scan type : Progressive
    Bits/(Pixel*Frame) : 0.052
    Stream size : 2.15 GiB (44%)
    Writing library : x264 core 152 r2851M ba24899
    Encoding settings : cabac=1 / ref=4 / deblock=1:-1:-1 / analyse=0x3:0x113 / me=umh / subme=9 / psy=1 / psy_rd=1.00:0.15 / mixed_ref=1 / me_range=24 / chroma_me=1 / trellis=2 / 8x8dct=1 / cqm=0 / deadzone=21,11 / fast_pskip=1 / chroma_qp_offset=-3 / threads=32 / lookahead_threads=4 / sliced_threads=0 / nr=0 / decimate=1 / interlaced=0 / bluray_compat=0 / constrained_intra=0 / bframes=3 / b_pyramid=2 / b_adapt=2 / b_bias=0 / direct=3 / weightb=1 / open_gop=0 / weightp=2 / keyint=250 / keyint_min=25 / scenecut=40 / intra_refresh=0 / rc_lookahead=50 / rc=2pass / mbtree=1 / bitrate=2500 / ratetol=1.0 / qcomp=0.60 / qpmin=0 / qpmax=69 / qpstep=4 / cplxblur=20.0 / qblur=0.5 / vbv_maxrate=31250 / vbv_bufsize=31250 / nal_hrd=none / filler=0 / ip_ratio=1.40 / aq=3:1.00
    Default : Yes
    Forced : No

    Audio #1
    ID : 2
    Format : DTS XLL
    Format/Info : Digital Theater Systems
    Commercial name : DTS-HD Master Audio
    Codec ID : A_DTS
    Duration : 2 h 3 min
    Bit rate mode : Variable
    Bit rate : 2 139 kb/s
    Channel(s) : 6 channels
    Channel layout : C L R Ls Rs LFE
    Sampling rate : 48.0 kHz
    Frame rate : 93.750 FPS (512 SPF)
    Bit depth : 16 bits
    Compression mode : Lossless
    Delay relative to video : -43 ms
    Stream size : 1.84 GiB (38%)
    Title : [English-DTS]
    Language : English
    Default : No
    Forced : No

    Audio #2
    ID : 3
    Format : AAC LC
    Format/Info : Advanced Audio Codec Low Complexity
    Codec ID : A_AAC-2
    Duration : 2 h 3 min
    Bit rate : 224 kb/s
    Channel(s) : 6 channels
    Channel layout : C L R Ls Rs LFE
    Sampling rate : 48.0 kHz
    Frame rate : 46.875 FPS (1024 SPF)
    Compression mode : Lossy
    Delay relative to video : -43 ms
    Stream size : 197 MiB (4%)
    Title : [English-AAC]
    Language : English
    Default : No
    Forced : No

    Audio #3
    ID : 4
    Format : AC-3
    Format/Info : Audio Coding 3
    Commercial name : Dolby Digital
    Codec ID : A_AC3
    Duration : 2 h 3 min
    Bit rate mode : Constant
    Bit rate : 640 kb/s
    Channel(s) : 2 channels
    Channel layout : L R
    Sampling rate : 48.0 kHz
    Frame rate : 31.250 FPS (1536 SPF)
    Compression mode : Lossy
    Delay relative to video : -43 ms
    Stream size : 564 MiB (11%)
    Title : [Thai-AC-3]
    Language : Thai
    Service kind : Complete Main
    Default : Yes
    Forced : No

    Text #1
    ID : 5
    Format : PGS
    Muxing mode : zlib
    Codec ID : S_HDMV/PGS
    Codec ID/Info : Picture based subtitle format used on BDs/HD-DVDs
    Duration : 2 h 2 min
    Bit rate : 70.5 kb/s
    Count of elements : 4312
    Stream size : 61.6 MiB (1%)
    Title : [EucrosiaUPC PGS]
    Language : Thai
    Default : Yes
    Forced : No

    Text #2
    ID : 6
    Format : PGS
    Muxing mode : zlib
    Codec ID : S_HDMV/PGS
    Codec ID/Info : Picture based subtitle format used on BDs/HD-DVDs
    Duration : 2 h 2 min
    Bit rate : 70.4 kb/s
    Count of elements : 4312
    Stream size : 61.5 MiB (1%)
    Title : [TH Sarabun New PGS]
    Language : Thai
    Default : No
    Forced : No

    Text #3
    ID : 7
    Format : PGS
    Muxing mode : zlib
    Codec ID : S_HDMV/PGS
    Codec ID/Info : Picture based subtitle format used on BDs/HD-DVDs
    Duration : 2 h 2 min
    Bit rate : 69.5 kb/s
    Count of elements : 4312
    Stream size : 60.7 MiB (1%)
    Title : [Cordia New PGS]
    Language : Thai
    Default : No
    Forced : No

    Text #4
    ID : 8
    Format : PGS
    Muxing mode : zlib
    Codec ID : S_HDMV/PGS
    Codec ID/Info : Picture based subtitle format used on BDs/HD-DVDs
    Duration : 2 h 1 min
    Bit rate : 31.7 kb/s
    Count of elements : 3362
    Stream size : 27.7 MiB (1%)
    Title : [English PGS]
    Language : English
    Default : No
    Forced : No

    Menu
    00:00:00.000 : Chapter 01
    00:10:37.554 : Chapter 02
    00:15:19.418 : Chapter 03
    00:24:02.983 : Chapter 04
    00:32:55.182 : Chapter 05
    00:41:56.180 : Chapter 06
    00:47:04.071 : Chapter 07
    00:55:31.119 : Chapter 08
    01:03:51.369 : Chapter 09
    01:12:44.193 : Chapter 10
    01:19:51.787 : Chapter 11
    01:29:15.016 : Chapter 12
    01:35:39.776 : Chapter 13
    01:42:10.374 : Chapter 14
    01:45:06.217 : Chapter 15
    01:54:08.383 : Chapter 16










    Download:cornfile
    http://cornfile.com/msww1tw0x3xw
    Download:filecondo
    http://www.filecondo.com/dl.php?f=k796371LFE3L

  2. The Following 6 Users Say Thank You to Duckload.us For This Useful Post:

    bigbang06 (05-10-2021), gaszolineskywalker (05-11-2021), noi54 (05-12-2021), sawara (05-12-2021), virusring (05-13-2021), Wesker_TOT (05-13-2021)

  3. #2
    Senior Member
    สมัครเมื่อ
    Jul 2013
    โพสต์
    2,281
    Thanks
    0
    Thanked 0 Times in 0 Posts
    ขอบคุณครับ

  4. #3
    Senior Member
    สมัครเมื่อ
    Oct 2012
    โพสต์
    1,533
    Thanks
    2,461
    Thanked 0 Times in 0 Posts
    ขอบคุณครับ

  5. #4
    Senior Member
    สมัครเมื่อ
    Dec 2013
    โพสต์
    422
    Thanks
    355
    Thanked 0 Times in 0 Posts
    ขอบคุณครับผม

  6. #5
    Senior Member
    สมัครเมื่อ
    Dec 2013
    โพสต์
    3,000
    Thanks
    4,919
    Thanked 0 Times in 0 Posts
    ขอบคุณครับ...

+ ตอบกลับกระทู้

ข้อมูลกระทู้

Users Browsing this Thread

ในขณะนี้มี 1 ท่านดูกระทู้อยู่. (0 สมาชิกและ 1 ผู้เยี่ยมชม)

     

กฎการโพสต์ข้อความ

  • ท่าน ไม่สามารถ ตั้งกระทู้ใหม่ได้
  • ท่าน ไม่สามารถ ตอบกระทู้ได้
  • ท่าน ไม่สามารถ แนบไฟล์ได้
  • ท่าน ไม่สามารถ แก้ไขข้อความโพสต์ได้
  • BB code สถานะ เปิด
  • Smilies สถานะ เปิด
  • [IMG] สถานะ เปิด
  • HTML สถานะ ปิด