+ ตอบกลับกระทู้
สรุปผลการค้นหา 1 ถึง 5 จากทั้งหมด 5
  1. #1
    Administrators รูปส่วนตัว Duckload.us
    สมัครเมื่อ
    Dec 2010
    โพสต์
    127,911
    Thanks
    7
    Thanked 132,098 Times in 58,486 Posts

    Thumbs up [ฝรั่ง]-[NETFLIX] Oxygen (2021) ออกซิเจน-WEB-DL.EAC-3.Atmos.1080p. [Netflix (web-dl)]-[พากย์ฝรั่งเศส Atmos 5.1 อังกฤษ 5.1 ไทย 5.1 บรรยายไทย-อังกฤษ]




    หลังจากฟื้นขึ้นมาในแคปซูลแช่แข็ง ลิซต้องหาทางเอาชีวิตรอดและนึกให้ออกว่าตัวเองเป็นใค รก่อนที่ออกซิเจนจะหมดลง

    Format : Matroska
    Format version : Version 4
    File size : 4.82 GiB
    Duration : 1 h 41 min
    Overall bit rate : 6 768 kb/s
    Encoded date : UTC 2021-05-12 11:46:53
    Writing application : mkvmerge v56.1.0 ('My Friend') 64-bit
    Writing library : libebml v1.4.2 + libmatroska v1.6.4

    Video
    ID : 1
    Format : AVC
    Format/Info : Advanced Video Codec
    Format profile : [email protected]
    Format settings : CABAC / 3 Ref Frames
    Format settings, CABAC : Yes
    Format settings, Reference : 3 frames
    Codec ID : V_MPEG4/ISO/AVC
    Duration : 1 h 41 min
    Bit rate : 4 639 kb/s
    Width : 1 920 pixels
    Height : 800 pixels
    Display aspect ratio : 2.40:1
    Frame rate mode : Constant
    Frame rate : 24.000 FPS
    Color space : YUV
    Chroma subsampling : 4:2:0
    Bit depth : 8 bits
    Scan type : Progressive
    Bits/(Pixel*Frame) : 0.126
    Stream size : 3.30 GiB (69%)
    Language : French
    Default : Yes
    Forced : No

    Audio #1
    ID : 2
    Format : E-AC-3 JOC
    Format/Info : Enhanced AC-3 with Joint Object Coding
    Commercial name : Dolby Digital Plus with Dolby Atmos
    Codec ID : A_EAC3
    Duration : 1 h 41 min
    Bit rate mode : Constant
    Bit rate : 768 kb/s
    Channel(s) : 6 channels
    Channel layout : L R C LFE Ls Rs
    Sampling rate : 48.0 kHz
    Frame rate : 31.250 FPS (1536 SPF)
    Compression mode : Lossy
    Stream size : 560 MiB (11%)
    Title : E-AC3 Atmos French
    Language : French
    Service kind : Complete Main
    Default : Yes
    Forced : No
    Complexity index : 16
    Number of dynamic objects : 15
    Bed channel count : 1 channel
    Bed channel configuration : LFE

    Audio #2
    ID : 3
    Format : E-AC-3
    Format/Info : Enhanced AC-3
    Commercial name : Dolby Digital Plus
    Codec ID : A_EAC3
    Duration : 1 h 41 min
    Bit rate mode : Constant
    Bit rate : 640 kb/s
    Channel(s) : 6 channels
    Channel layout : L R C LFE Ls Rs
    Sampling rate : 48.0 kHz
    Frame rate : 31.250 FPS (1536 SPF)
    Compression mode : Lossy
    Stream size : 466 MiB (9%)
    Title : E-AC3 English
    Language : English
    Service kind : Complete Main
    Default : No
    Forced : No

    Audio #3
    ID : 4
    Format : E-AC-3
    Format/Info : Enhanced AC-3
    Commercial name : Dolby Digital Plus
    Codec ID : A_EAC3
    Duration : 1 h 41 min
    Bit rate mode : Constant
    Bit rate : 640 kb/s
    Channel(s) : 6 channels
    Channel layout : L R C LFE Ls Rs
    Sampling rate : 48.0 kHz
    Frame rate : 31.250 FPS (1536 SPF)
    Compression mode : Lossy
    Stream size : 466 MiB (9%)
    Title : E-AC3 Thai
    Language : Thai
    Service kind : Complete Main
    Default : No
    Forced : No

    Text #1
    ID : 5
    Format : VobSub
    Muxing mode : zlib
    Codec ID : S_VOBSUB
    Codec ID/Info : Picture based subtitle format used on DVDs
    Duration : 1 h 40 min
    Bit rate : 11.4 kb/s
    Count of elements : 1121
    Stream size : 8.16 MiB (0%)
    Title : Sub Thai 1080p
    Language : Thai
    Default : No
    Forced : No

    Text #2
    ID : 6
    Format : UTF-8
    Codec ID : S_TEXT/UTF8
    Codec ID/Info : UTF-8 Plain Text
    Duration : 1 h 40 min
    Bit rate : 113 b/s
    Count of elements : 1121
    Stream size : 83.6 KiB (0%)
    Title : Sub Thai SRT
    Language : Thai
    Default : No
    Forced : No

    Text #3
    ID : 7
    Format : PGS
    Muxing mode : zlib
    Codec ID : S_HDMV/PGS
    Codec ID/Info : Picture based subtitle format used on BDs/HD-DVDs
    Duration : 1 h 40 min
    Bit rate : 31.5 kb/s
    Count of elements : 2242
    Stream size : 22.6 MiB (0%)
    Title : Sub Thai PGS
    Language : Thai
    Default : No
    Forced : No

    Text #4
    ID : 8
    Format : PGS
    Muxing mode : zlib
    Codec ID : S_HDMV/PGS
    Codec ID/Info : Picture based subtitle format used on BDs/HD-DVDs
    Duration : 1 h 40 min
    Bit rate : 55.2 kb/s
    Count of elements : 2242
    Stream size : 39.7 MiB (1%)
    Title : Sub Thai PGS NETFLIX
    Language : Thai
    Default : Yes
    Forced : No

    Text #5
    ID : 9
    Format : VobSub
    Muxing mode : zlib
    Codec ID : S_VOBSUB
    Codec ID/Info : Picture based subtitle format used on DVDs
    Duration : 1 h 33 min
    Bit rate : 11.2 kb/s
    Count of elements : 1095
    Stream size : 7.50 MiB (0%)
    Title : Sub English 1080p
    Language : English
    Default : No
    Forced : No

    Text #6
    ID : 10
    Format : UTF-8
    Codec ID : S_TEXT/UTF8
    Codec ID/Info : UTF-8 Plain Text
    Duration : 1 h 33 min
    Bit rate : 56 b/s
    Count of elements : 1095
    Stream size : 38.6 KiB (0%)
    Title : Sub English SRT
    Language : English
    Default : No
    Forced : No

    Text #7
    ID : 11
    Format : PGS
    Muxing mode : zlib
    Codec ID : S_HDMV/PGS
    Codec ID/Info : Picture based subtitle format used on BDs/HD-DVDs
    Duration : 1 h 33 min
    Bit rate : 29.0 kb/s
    Count of elements : 2190
    Stream size : 19.4 MiB (0%)
    Title : Sub English PGS
    Language : English
    Default : No
    Forced : No






    Download:cornfile
    http://cornfile.com/sy44t5w1fzli
    Download:filecondo
    http://www.filecondo.com/dl.php?f=t1db711LH8xN

  2. The Following 3 Users Say Thank You to Duckload.us For This Useful Post:

    jackjangri (05-21-2021), noi54 (05-14-2021), Wesker_TOT (05-15-2021)

  3. #2
    Senior Member
    สมัครเมื่อ
    Jul 2013
    โพสต์
    2,281
    Thanks
    0
    Thanked 0 Times in 0 Posts
    ขอบคุณครับ

  4. #3
    Senior Member
    สมัครเมื่อ
    Dec 2013
    โพสต์
    3,000
    Thanks
    4,919
    Thanked 0 Times in 0 Posts
    ขอบคุณครับ...

  5. #4
    Senior Member
    สมัครเมื่อ
    Jul 2012
    โพสต์
    7,536
    Thanks
    0
    Thanked 0 Times in 0 Posts
    ขอบคุณมากจ้า

  6. #5
    Senior Member
    สมัครเมื่อ
    Jun 2011
    โพสต์
    149
    Thanks
    304
    Thanked 40 Times in 29 Posts
    ขอบคุณครับ

+ ตอบกลับกระทู้

ข้อมูลกระทู้

Users Browsing this Thread

ในขณะนี้มี 1 ท่านดูกระทู้อยู่. (0 สมาชิกและ 1 ผู้เยี่ยมชม)

     

กฎการโพสต์ข้อความ

  • ท่าน ไม่สามารถ ตั้งกระทู้ใหม่ได้
  • ท่าน ไม่สามารถ ตอบกระทู้ได้
  • ท่าน ไม่สามารถ แนบไฟล์ได้
  • ท่าน ไม่สามารถ แก้ไขข้อความโพสต์ได้
  • BB code สถานะ เปิด
  • Smilies สถานะ เปิด
  • [IMG] สถานะ เปิด
  • HTML สถานะ ปิด