+ ตอบกลับกระทู้
สรุปผลการค้นหา 1 ถึง 4 จากทั้งหมด 4
  1. #1
    Administrators รูปส่วนตัว Duckload.us
    สมัครเมื่อ
    Dec 2010
    โพสต์
    127,911
    Thanks
    7
    Thanked 132,098 Times in 58,486 Posts

    Thumbs up [ฝรั่ง]-The Father (2020) - [Soundtrack] [บรรยายไทยมาสเตอร์+อังกฤษ] 1080p.WEB-DL.DD5.1.H.264




    เมื่อ “แอนโทนี” (แอนโทนี ฮอปกินส์) อายุย่าง 80 และหยิบจับอะไรไม่ถนัด “แอนน์” (โอลิเวีย โคลแมน) ลูกสาวที่ห่วงพ่อมากกว่าอะไรทั้งหมดจึงตัดสินใจจ้างค นมาดูแล แต่นั่นกลับไม่ใช่สิ่งที่ผู้เป็นพ่อต้องการ เขายืนยันหัวชนฝาว่าตนเองยังไหว และสามารถจัดการชีวิตอันเปลี่ยวเหงาในแฟลตส่วนตัวอัน กว้างขวางได้เหมือนที่เคยเป็นมา

    แต่ความชรานั้นไม่ปรานี มันค่อยๆ เข้ามารุกคืบแอนโทนีทีละน้อย ร้ายแรงที่สุดคือความทรงจำที่คล้ายจะสับสนปนเป และแยกแยะไม่ได้ว่าสิ่งไหนคือความจริง สิ่งไหนคือความฟั่นเฟือน

    เมื่อถึงจุดที่ยึดถืออะไรรอบกายไม่ได้อีก แอนโทนีจึงย้อนกลับมาตั้งคำถามถึงการมีอยู่ของตนเอง พร้อมๆ กันนั้นแอนน์ก็ต้องทำใจยอมรับว่าพ่อกำลังจะจากเธอไปแ ล้ว แม้ร่างกายของพ่อจะยังนั่งอยู่ข้างๆ เธอก็ตาม


    Duration : 1 h 36 min
    Overall bit rate : 4 678 kb/s
    Encoded date : UTC 2021-05-16 07:30:12
    Writing application : mkvmerge v56.1.0 ('My Friend') 64-bit
    Writing library : libebml v1.4.2 + libmatroska v1.6.4
    Cover : Yes
    Attachments : cover

    Video
    ID : 1
    Format : AVC
    Format/Info : Advanced Video Codec
    Format profile : [email protected]
    Format settings : CABAC / 2 Ref Frames
    Format settings, CABAC : Yes
    Format settings, Reference frames : 2 frames
    Codec ID : V_MPEG4/ISO/AVC
    Duration : 1 h 36 min
    Bit rate : 4 258 kb/s
    Width : 1 920 pixels
    Height : 1 080 pixels
    Display aspect ratio : 16:9
    Frame rate mode : Constant
    Frame rate : 23.976 (24000/1001) FPS
    Color space : YUV
    Chroma subsampling : 4:2:0
    Bit depth : 8 bits
    Scan type : Progressive
    Bits/(Pixel*Frame) : 0.086
    Stream size : 2.88 GiB (91%)
    Writing library : x264 core 155 r2901 7d0ff22
    Default : Yes
    Forced : No
    Color range : Limited
    Color primaries : BT.709
    Transfer characteristics : BT.709
    Matrix coefficients : BT.709

    Audio
    ID : 2
    Format : AC-3
    Format/Info : Audio Coding 3
    Commercial name : Dolby Digital
    Codec ID : A_AC3
    Duration : 1 h 36 min
    Bit rate mode : Constant
    Bit rate : 384 kb/s
    Channel(s) : 6 channels
    Channel layout : L R C LFE Ls Rs
    Sampling rate : 48.0 kHz
    Frame rate : 31.250 FPS (1536 SPF)
    Compression mode : Lossy
    Stream size : 266 MiB (8%)
    Language : English
    Service kind : Complete Main
    Default : Yes
    Forced : No

    Text #1
    ID : 3
    Format : UTF-8
    Codec ID : S_TEXT/UTF8
    Codec ID/Info : UTF-8 Plain Text
    Duration : 1 h 32 min
    Bit rate : 61 b/s
    Count of elements : 1467
    Stream size : 41.3 KiB (0%)
    Language : English
    Default : No
    Forced : No

    Text #2
    ID : 4
    Format : PGS
    Muxing mode : zlib
    Codec ID : S_HDMV/PGS
    Codec ID/Info : Picture based subtitle format used on BDs/HD-DVDs
    Duration : 1 h 32 min
    Bit rate : 41.6 kb/s
    Count of elements : 2934
    Stream size : 27.4 MiB (1%)
    Language : English
    Default : No
    Forced : No

    Text #3
    ID : 5
    Format : UTF-8
    Codec ID : S_TEXT/UTF8
    Codec ID/Info : UTF-8 Plain Text
    Duration : 1 h 34 min
    Bit rate : 114 b/s
    Count of elements : 1193
    Stream size : 79.2 KiB (0%)
    Language : Thai
    Default : No
    Forced : No

    Text #4
    ID : 6
    Format : PGS
    Muxing mode : zlib
    Codec ID : S_HDMV/PGS
    Codec ID/Info : Picture based subtitle format used on BDs/HD-DVDs
    Duration : 1 h 34 min
    Bit rate : 28.3 kb/s
    Count of elements : 2386
    Stream size : 19.1 MiB (1%)
    Language : Thai
    Default : Yes
    Forced : No





    Download:cornfile
    http://cornfile.com/05p1wyispaxs
    Download:filecondo
    http://www.filecondo.com/dl.php?f=e326711LIcgV

  2. The Following 4 Users Say Thank You to Duckload.us For This Useful Post:

    jackjangri (05-21-2021), kappa (06-03-2021), nananass (05-28-2021), noi54 (05-16-2021)

  3. #2
    Senior Member
    สมัครเมื่อ
    Jul 2012
    โพสต์
    7,536
    Thanks
    0
    Thanked 0 Times in 0 Posts
    ขอบคุณมากจ้า

  4. #3
    Senior Member
    สมัครเมื่อ
    Jun 2011
    โพสต์
    149
    Thanks
    304
    Thanked 40 Times in 29 Posts
    ขอบคุณมากจ้า

  5. #4
    Junior Member
    สมัครเมื่อ
    Sep 2017
    โพสต์
    23
    Thanks
    18
    Thanked 0 Times in 0 Posts
    ขบอคุณมากค้าบบ

+ ตอบกลับกระทู้

ข้อมูลกระทู้

Users Browsing this Thread

ในขณะนี้มี 1 ท่านดูกระทู้อยู่. (0 สมาชิกและ 1 ผู้เยี่ยมชม)

     

กฎการโพสต์ข้อความ

  • ท่าน ไม่สามารถ ตั้งกระทู้ใหม่ได้
  • ท่าน ไม่สามารถ ตอบกระทู้ได้
  • ท่าน ไม่สามารถ แนบไฟล์ได้
  • ท่าน ไม่สามารถ แก้ไขข้อความโพสต์ได้
  • BB code สถานะ เปิด
  • Smilies สถานะ เปิด
  • [IMG] สถานะ เปิด
  • HTML สถานะ ปิด