+ ตอบกลับกระทู้
สรุปผลการค้นหา 1 ถึง 3 จากทั้งหมด 3
  1. #1
    Administrators รูปส่วนตัว Duckload.us
    สมัครเมื่อ
    Dec 2010
    โพสต์
    127,911
    Thanks
    7
    Thanked 132,094 Times in 58,485 Posts

    Lightbulb [เกาหลี]-[Haechi แฮชิ หน่วยตรวจการพิทักษ์ธรรม Jung Il Woo, Go Ara, Kwon Yul, Park Hoon TH Ep.1-24/End]-WEB-DL.H.264.1080p. [From HD-TV]-[Sound:Thai/Korea]-[Sub:Thai]




    ซีรี่ย์เกาหลี: Haechi
    ชื่อภาษาไทย: แฮชิ หน่วยตรวจการพิทักษ์ธรรม, แฮชิ ปกปักรักยุติธรรม
    ประเภท: Historical, Action
    จำนวนตอน: 24
    นำแสดงโดย: Jung Il Woo, Go Ara, Kwon Yul, Park Hoon
    ผู้กำกับ: Lee Yong Suk
    เขียนบทโดย: Kim Yi Young
    ออกอากาศทางสถานีโทรทัศน์: MONOMAXXX
    เริ่มออกอากาศ: -
    เวลาออกอากาศ: -
    นักแสดง:
    Jung Il Woo as Lee Geum
    Kwon Yul as Park Moon Soo
    Go Ah Ra as Yeo Ji
    Park Hoon as Dal Moon
    Lee Kyung Young as Min Jin Hun
    Jung Moon Sung as Lee Tan
    Bae Jung Hwa as Chun Yoon Young / Bok Dan
    Han Sang Jin as Wi Byung Joo
    Saheonbu
    Jung Soon Won as Joo Young Han (mid 30s)
    Choi Min Chul as Yoon Hyuk (early 30s)
    Jun Bae Soo as Jang Dal (40s)
    Ahn Seung Kyoon as Ah Bong (early 20s)
    Kim Jong Soo as Lee Yi Kyum (60s)
    Lee Pil Mo as Han Jung Suk (mid 30s)
    Royal Families
    Han Seung Hyun as Kyungjong (early 30s)
    Nam Ki Ae as Queen Inwon (40s)
    No Young Hak as Prince Yunryung (early 20s)
    Song Ji In as Queen Seonui (mid 20s)
    Supporting Cast
    Choi Soo Im as Lady Seo (late 20s)
    Park Ji Yun as Cho Hong (late 20s)
    Ha Sung Kwang as Ja Dong (50s)
    Do Ki Suk as Kae Dol (early 30s)
    Seo Eun Yool as Han Joon Jae (7)
    Lee Won Jae as Kim Chang Joong (70s)
    Han Ji Sang as Do Ji Kwang
    Im Ho as Lee Kwang Jwa
    Hong Jin Ki as Goon Tae
    Son Byung Ho as Jo Tae Goo
    Cameos and special appearances
    Kim Gab Soo as King Sukjong
    Ahn Seo Hyun as girl
    Synopsis: องค์ชายอีกึม (จองอิลอู) องค์ชายผู้ต่ำต้อยเพราะมีแม่เป็นสามัญชน ต้องปิดบังความสามารถที่ตนเองมีเพราะอาจนำมาซึ่งภัย แต่เมื่อแผ่นดินจะถูกครอบครองโดยรัชทายาทผู้ชั่วช้า เขาจึงต้องเข้าร่วมสงครามชิงบัลลังก์ครั้งนี้ โดยมีสมาชิกที่คอยช่วยเหลือ ได้แก่ ยอจี (โกอารา) ผู้ตรวจการหญิงมากฝีมือ พัคมุนซู (ควอนยูล) บัณฑิตหนุ่มผู้สอบไม่ผ่านราชการ และดัลมุน (พัคฮุน) นักแสดงตลกที่เก่งศิลปะการต่อสู้หลากหลายชนิด ทั้งสี่ได้รวมตัวกันเพื่อสร้างความเป็นธรรมให้แผ่นดิ น มาติดตามชมกันได้ในซีรีย์เกาหลี Haechi แฮชิ หน่วยตรวจการพิทักษ์ธรรม
    Credit: franky

    General
    Unique ID : 17195771502313823359771524568079918886 (0xCEFC8FDF8FDD869245D55B5C27FE726)
    Complete name : K:Haechi แฮชิ หน่วยตรวจการพิทักษ์ธรรมHaechi.2019.S01E09.1080p.NF .WEB-DL.DD2.0.x264.mkv
    Format : Matroska
    Format version : Version 4
    File size : 2.04 GiB
    Duration : 59 min 52 s
    Overall bit rate : 4 878 kb/s
    Encoded date : UTC 2021-05-31 04:30:21
    Writing application : mkvmerge v19.0.0 ('Brave Captain') 64-bit
    Writing library : libebml v1.3.5 + libmatroska v1.4.8

    Video
    ID : 1
    Format : AVC
    Format/Info : Advanced Video Codec
    Format profile : [email protected]
    Format settings : 1 Ref Frames
    Format settings, CABAC : No
    Format settings, Reference fra : 1 frame
    Codec ID : V_MPEG4/ISO/AVC
    Duration : 59 min 51 s
    Bit rate : 4 544 kb/s
    Width : 1 920 pixels
    Height : 1 080 pixels
    Display aspect ratio : 16:9
    Frame rate mode : Constant
    Frame rate : 23.976 (24000/1001) FPS
    Color space : YUV
    Chroma subsampling : 4:2:0
    Bit depth : 8 bits
    Scan type : Progressive
    Bits/(Pixel*Frame) : 0.091
    Stream size : 1.90 GiB (93%)
    Default : Yes
    Forced : No

    Audio #1
    ID : 2
    Format : AC-3
    Format/Info : Audio Coding 3
    Commercial name : Dolby Digital
    Codec ID : A_AC3
    Duration : 59 min 52 s
    Bit rate mode : Constant
    Bit rate : 192 kb/s
    Channel(s) : 2 channels
    Channel layout : L R
    Sampling rate : 48.0 kHz
    Frame rate : 31.250 FPS (1536 SPF)
    Compression mode : Lossy
    Delay relative to video : 31 ms
    Stream size : 82.2 MiB (4%)
    Language : Thai
    Service kind : Complete Main
    Default : Yes
    Forced : No

    Audio #2
    ID : 3
    Format : E-AC-3
    Format/Info : Enhanced AC-3
    Commercial name : Dolby Digital Plus
    Codec ID : A_EAC3
    Duration : 59 min 51 s
    Bit rate mode : Constant
    Bit rate : 128 kb/s
    Channel(s) : 2 channels
    Channel layout : L R
    Sampling rate : 48.0 kHz
    Frame rate : 31.250 FPS (1536 SPF)
    Compression mode : Lossy
    Stream size : 54.8 MiB (3%)
    Language : Korean
    Service kind : Complete Main
    Default : No
    Forced : No

    Text #1
    ID : 4
    Format : UTF-8
    Codec ID : S_TEXT/UTF8
    Codec ID/Info : UTF-8 Plain Text
    Duration : 59 min 23 s
    Bit rate : 155 b/s
    Count of elements : 955
    Stream size : 67.5 KiB (0%)
    Language : Thai
    Default : Yes
    Forced : No

    Text #2
    ID : 5
    Format : PGS
    Muxing mode : zlib
    Codec ID : S_HDMV/PGS
    Codec ID/Info : Picture based subtitle format used on BDs/HD-DVDs
    Duration : 59 min 23 s
    Bit rate : 27.1 kb/s
    Count of elements : 1910
    Stream size : 11.5 MiB (1%)
    Language : Thai
    Default : No
    Forced : No



    01 http://www.filecondo.com/dl.php?f=c1647e1LO4CX
    02 http://www.filecondo.com/dl.php?f=y1ca291LO4EZ
    03 http://www.filecondo.com/dl.php?f=V692831LO4FT
    04 http://www.filecondo.com/dl.php?f=J849761LO4GT
    05 http://www.filecondo.com/dl.php?f=D0a5741LO4HO
    06 http://www.filecondo.com/dl.php?f=O8d8e51LO4M3
    07 http://www.filecondo.com/dl.php?f=Ze05ea1LO4P8
    08 http://www.filecondo.com/dl.php?f=m2cffe1LO4Qg
    09 http://www.filecondo.com/dl.php?f=P9e6ec1LO4SS
    10 http://www.filecondo.com/dl.php?f=n921731LO4Vk
    11 http://www.filecondo.com/dl.php?f=c768841LO4WM
    12 http://www.filecondo.com/dl.php?f=8beee81LO4Zi
    13 http://www.filecondo.com/dl.php?f=X9dfb71LO524
    14 http://www.filecondo.com/dl.php?f=kb8cb01LO54C
    15 http://www.filecondo.com/dl.php?f=G182991LO57z
    16 http://www.filecondo.com/dl.php?f=Xc53c11LO5bz
    17 http://www.filecondo.com/dl.php?f=F5dff41LO5fa
    18 http://www.filecondo.com/dl.php?f=A0671d1LO5hI
    19 http://www.filecondo.com/dl.php?f=be52721LO5jl
    20 http://www.filecondo.com/dl.php?f=Vd57291LO5kQ
    21 http://www.filecondo.com/dl.php?f=zcade81LO5nm
    22 http://www.filecondo.com/dl.php?f=z3d8601LO5q6
    23 http://www.filecondo.com/dl.php?f=9ef53d1LO5sk
    24 http://www.filecondo.com/dl.php?f=E98ffc1LO5u6

  2. #2
    Senior Member
    สมัครเมื่อ
    Jul 2013
    โพสต์
    2,265
    Thanks
    0
    Thanked 0 Times in 0 Posts
    ขอบคุณครับ

  3. #3
    Junior Member
    สมัครเมื่อ
    Jun 2018
    โพสต์
    20
    Thanks
    0
    Thanked 0 Times in 0 Posts
    ขอบคุณมากๆครับ

+ ตอบกลับกระทู้

ข้อมูลกระทู้

Users Browsing this Thread

ในขณะนี้มี 1 ท่านดูกระทู้อยู่. (0 สมาชิกและ 1 ผู้เยี่ยมชม)

     

กฎการโพสต์ข้อความ

  • ท่าน ไม่สามารถ ตั้งกระทู้ใหม่ได้
  • ท่าน ไม่สามารถ ตอบกระทู้ได้
  • ท่าน ไม่สามารถ แนบไฟล์ได้
  • ท่าน ไม่สามารถ แก้ไขข้อความโพสต์ได้
  • BB code สถานะ เปิด
  • Smilies สถานะ เปิด
  • [IMG] สถานะ เปิด
  • HTML สถานะ ปิด