Set in the Republic of China, Axi has extraordinary skill in Kung Fu. After being sold to work at a dance hall, she is adopted as a goddaughter of a dance hall master. There, she fights internal corruption and also falls in love.

General
Unique ID : 66911675864808179235642370553573658140 (0x3256B85314C1AAE07E7F47D2AE99CE1C)
Complete name : The.Queen.of.Kung.Fu.2020.1080p.WEB-DL.H.265 (CrazyyyMovie).mkv
Format : Matroska
Format version : Version 4
File size : 2.45 GiB
Duration : 1 h 15 min
Overall bit rate : 4 637 kb/s
Encoded date : UTC 2021-04-22 09:48:50
Writing application : mkvmerge v56.1.0 ('My Friend') 64-bit
Writing library : libebml v1.4.2 + libmatroska v1.6.4

Video
ID : 1
Format : HEVC
Format/Info : High Efficiency Video Coding
Format profile : [email protected]@High
Codec ID : V_MPEGH/ISO/HEVC
Duration : 1 h 15 min
Bit rate : 4 413 kb/s
Width : 1 920 pixels
Height : 864 pixels
Display aspect ratio : 2.222
Frame rate mode : Constant
Frame rate : 24.000 FPS
Color space : YUV
Chroma subsampling : 4:2:0
Bit depth : 8 bits
Bits/(Pixel*Frame) : 0.111
Stream size : 2.33 GiB (95%)
Title : 霍 家 拳 之 铁 臂 娇 娃 (2020)
Language : Chinese
Default : Yes
Forced : No

Audio #1
ID : 2
Format : E-AC-3
Format/Info : Enhanced AC-3
Commercial name : Dolby Digital Plus
Codec ID : A_EAC3
Duration : 1 h 15 min
Bit rate mode : Constant
Bit rate : 96.0 kb/s
Channel(s) : 2 channels
Channel layout : L R
Sampling rate : 48.0 kHz
Frame rate : 31.250 FPS (1536 SPF)
Compression mode : Lossy
Stream size : 51.9 MiB (2%)
Title : Mandarin
Language : Chinese
Service kind : Complete Main
Default : Yes
Forced : No

Audio #2
ID : 3
Format : AAC LC
Format/Info : Advanced Audio Codec Low Complexity
Codec ID : A_AAC-2
Duration : 1 h 15 min
Bit rate : 124 kb/s
Channel(s) : 2 channels
Channel layout : L R
Sampling rate : 44.1 kHz
Frame rate : 43.066 FPS (1024 SPF)
Compression mode : Lossy
Stream size : 67.3 MiB (3%)
Title : Mandarin
Language : Chinese
Default : No
Forced : No

Text #1
ID : 4
Format : UTF-8
Codec ID : S_TEXT/UTF8
Codec ID/Info : UTF-8 Plain Text
Duration : 1 h 14 min
Bit rate : 57 b/s
Count of elements : 1266
Stream size : 31.1 KiB (0%)
Language : English
Default : No
Forced : No

Text #2
ID : 5
Format : UTF-8
Codec ID : S_TEXT/UTF8
Codec ID/Info : UTF-8 Plain Text
Duration : 1 h 13 min
Bit rate : 50 b/s
Count of elements : 1262
Stream size : 27.3 KiB (0%)
Language : Indonesian
Default : No
Forced : No

Text #3
ID : 6
Format : UTF-8
Codec ID : S_TEXT/UTF8
Codec ID/Info : UTF-8 Plain Text
Duration : 1 h 14 min
Bit rate : 64 b/s
Count of elements : 1279
Stream size : 35.4 KiB (0%)
Language : Korean
Default : No
Forced : No

Text #4
ID : 7
Format : UTF-8
Codec ID : S_TEXT/UTF8
Codec ID/Info : UTF-8 Plain Text
Duration : 1 h 13 min
Bit rate : 58 b/s
Count of elements : 1263
Stream size : 31.6 KiB (0%)
Language : Malay
Default : No
Forced : No

Text #5
ID : 8
Format : UTF-8
Codec ID : S_TEXT/UTF8
Codec ID/Info : UTF-8 Plain Text
Duration : 1 h 13 min
Bit rate : 43 b/s
Count of elements : 1257
Stream size : 23.3 KiB (0%)
Title : Simplified Chinese
Language : Chinese
Default : No
Forced : No

Text #6
ID : 9
Format : UTF-8
Codec ID : S_TEXT/UTF8
Codec ID/Info : UTF-8 Plain Text
Duration : 1 h 14 min
Bit rate : 61 b/s
Count of elements : 1273
Stream size : 33.5 KiB (0%)
Language : Spanish
Default : No
Forced : No

Text #7
ID : 10
Format : UTF-8
Codec ID : S_TEXT/UTF8
Codec ID/Info : UTF-8 Plain Text
Duration : 1 h 13 min
Bit rate : 142 b/s
Count of elements : 1258
Stream size : 77.1 KiB (0%)
Language : Thai
Default : No
Forced : No

Text #8
ID : 11
Format : UTF-8
Codec ID : S_TEXT/UTF8
Codec ID/Info : UTF-8 Plain Text
Duration : 1 h 13 min
Bit rate : 43 b/s
Count of elements : 1257
Stream size : 23.3 KiB (0%)
Title : Traditional Chinese
Language : Chinese
Default : No
Forced : No

Text #9
ID : 12
Format : UTF-8
Codec ID : S_TEXT/UTF8
Codec ID/Info : UTF-8 Plain Text
Duration : 1 h 15 min
Bit rate : 72 b/s
Count of elements : 1290
Stream size : 40.2 KiB (0%)
Language : Vietnamese
Default : No
Forced : No



http://cornfile.com/q8uuzeddvmbv