Set in the Republic of China, Axi has extraordinary skill in Kung Fu. After being sold to work at a dance hall, she is adopted as a goddaughter of a dance hall master. There, she fights internal corruption and also falls in love.

General
Unique ID : 74396188050537603780169540109320000248 (0x37F82F440235EED3E56BC0C537C312F8)
Complete name : The.Queen.of.Kung.Fu.2.2020.1080p.WEB-DL.H.264 (CrazyyyMovie).mkv
Format : Matroska
Format version : Version 4
File size : 1.20 GiB
Duration : 1 h 16 min
Overall bit rate : 2 239 kb/s
Movie name : The.Queen.of.Kung.Fu.2.2020.1080p.IQ.WEB-DL.H.264
Encoded date : UTC 2021-05-23 13:46:46
Writing application : mkvmerge v56.1.0 ('My Friend') 64-bit
Writing library : libebml v1.4.2 + libmatroska v1.6.4

Video
ID : 1
Format : AVC
Format/Info : Advanced Video Codec
Format profile : [email protected]
Format settings : CABAC / 3 Ref Frames
Format settings, CABAC : Yes
Format settings, Reference frames : 3 frames
Codec ID : V_MPEG4/ISO/AVC
Duration : 1 h 16 min
Bit rate : 2 046 kb/s
Width : 1 920 pixels
Height : 816 pixels
Display aspect ratio : 2.35:1
Frame rate mode : Constant
Frame rate : 24.000 FPS
Color space : YUV
Chroma subsampling : 4:2:0
Bit depth : 8 bits
Scan type : Progressive
Bits/(Pixel*Frame) : 0.054
Stream size : 1.10 GiB (91%)
Writing library : qiyi.com vtc-test
Language : Chinese
Default : Yes
Forced : No
Color range : Limited
Color primaries : BT.709
Transfer characteristics : BT.709
Matrix coefficients : BT.709

Audio
ID : 2
Format : AAC LC
Format/Info : Advanced Audio Codec Low Complexity
Codec ID : A_AAC-2
Duration : 1 h 16 min
Bit rate : 192 kb/s
Channel(s) : 2 channels
Channel layout : L R
Sampling rate : 44.1 kHz
Frame rate : 43.066 FPS (1024 SPF)
Compression mode : Lossy
Stream size : 104 MiB (8%)
Language : Chinese
Default : Yes
Forced : No

Text #1
ID : 3
Format : UTF-8
Codec ID : S_TEXT/UTF8
Codec ID/Info : UTF-8 Plain Text
Duration : 1 h 16 min
Bit rate : 56 b/s
Count of elements : 1296
Stream size : 31.8 KiB (0%)
Language : English
Default : Yes
Forced : No

Text #2
ID : 4
Format : UTF-8
Codec ID : S_TEXT/UTF8
Codec ID/Info : UTF-8 Plain Text
Duration : 1 h 16 min
Bit rate : 78 b/s
Count of elements : 1289
Stream size : 44.3 KiB (0%)
Language : Arabic
Default : No
Forced : No

Text #3
ID : 5
Format : UTF-8
Codec ID : S_TEXT/UTF8
Codec ID/Info : UTF-8 Plain Text
Duration : 1 h 16 min
Bit rate : 62 b/s
Count of elements : 1295
Stream size : 34.8 KiB (0%)
Language : Indonesian
Default : No
Forced : No

Text #4
ID : 6
Format : UTF-8
Codec ID : S_TEXT/UTF8
Codec ID/Info : UTF-8 Plain Text
Duration : 1 h 16 min
Bit rate : 62 b/s
Count of elements : 1296
Stream size : 34.9 KiB (0%)
Language : Malay
Default : No
Forced : No

Text #5
ID : 7
Format : UTF-8
Codec ID : S_TEXT/UTF8
Codec ID/Info : UTF-8 Plain Text
Duration : 1 h 16 min
Bit rate : 64 b/s
Count of elements : 1296
Stream size : 36.0 KiB (0%)
Language : Korean
Default : No
Forced : No

Text #6
ID : 8
Format : UTF-8
Codec ID : S_TEXT/UTF8
Codec ID/Info : UTF-8 Plain Text
Duration : 1 h 16 min
Bit rate : 148 b/s
Count of elements : 1296
Stream size : 83.1 KiB (0%)
Language : Thai
Default : No
Forced : No

Text #7
ID : 9
Format : UTF-8
Codec ID : S_TEXT/UTF8
Codec ID/Info : UTF-8 Plain Text
Duration : 1 h 16 min
Bit rate : 77 b/s
Count of elements : 1296
Stream size : 43.7 KiB (0%)
Language : Vietnamese
Default : No
Forced : No

Text #8
ID : 10
Format : UTF-8
Codec ID : S_TEXT/UTF8
Codec ID/Info : UTF-8 Plain Text
Duration : 1 h 16 min
Bit rate : 40 b/s
Count of elements : 1288
Stream size : 22.9 KiB (0%)
Language : Chinese
Default : No
Forced : No

Text #9
ID : 11
Format : UTF-8
Codec ID : S_TEXT/UTF8
Codec ID/Info : UTF-8 Plain Text
Duration : 1 h 16 min
Bit rate : 40 b/s
Count of elements : 1288
Stream size : 22.9 KiB (0%)
Language : Chinese
Default : No
Forced : No



http://cornfile.com/mk3aala57ntx