https://youtu.be/Iot0eF6EoNA


หญิงสาวทาญาติบริษัทที่มีเงินทุนมหาศาลเป็นตัวตั้งตั วตีเพื่อที่จะล้มเจ้าลัทธิที่เธอเห็นว่าเป็นการหลอกล วง ครั้งแล้วครังเล่าที่เธอทูกผู้ที่ใกล้ชิดหักหลัง แต่เธอก็ยังมุ่งมั่นและก้าวเดินต่อไป




General
Complete name : SADAK 2 (2020)\Sadak 2 (2020).mp4
Format : MPEG-4
Format profile : Base Media
Codec ID : isom (isom/iso2/avc1/mp41)
File size : 4.62 GiB
Duration : 2 h 8 min
Overall bit rate mode : Constant
Overall bit rate : 5 144 kb/s
Writing application : Lavf57.71.100

Video
ID : 1
Format : AVC
Format/Info : Advanced Video Codec
Format profile : [email protected]
Format settings : CABAC / 1 Ref Frames
Format settings, CABAC : Yes
Format settings, Reference : 1 frame
Format settings, GOP : M=1, N=25
Codec ID : avc1
Codec ID/Info : Advanced Video Coding
Duration : 2 h 8 min
Duration_LastFrame : -31 ms
Bit rate mode : Constant
Bit rate : 4 944 kb/s
Width : 1 920 pixels
Height : 800 pixels
Display aspect ratio : 2.40:1
Frame rate mode : Constant
Frame rate : 29.970 (30000/1001) FPS
Color space : YUV
Chroma subsampling : 4:2:0
Bit depth : 8 bits
Scan type : Progressive
Bits/(Pixel*Frame) : 0.107
Stream size : 4.44 GiB (96%)
Codec configuration box : avcC

Audio
ID : 2
Format : AAC LC
Format/Info : Advanced Audio Codec Low Complexity
Codec ID : mp4a-40-2
Duration : 2 h 8 min
Bit rate mode : Constant
Bit rate : 192 kb/s
Channel(s) : 2 channels
Channel layout : L R
Sampling rate : 44.1 kHz
Frame rate : 43.066 FPS (1024 SPF)
Compression mode : Lossy
Stream size : 180 MiB (4%)
Default : Yes
Alternate group : 1


Download:cornfile
http://cornfile.com/etiyashl62ty
Download:filecondo
http://www.filecondo.com/dl.php?f=F483f01LQbEH