+ ตอบกลับกระทู้
สรุปผลการค้นหา 1 ถึง 3 จากทั้งหมด 3
  1. #1
    Administrators รูปส่วนตัว Duckload.us
    สมัครเมื่อ
    Dec 2010
    โพสต์
    127,911
    Thanks
    7
    Thanked 132,094 Times in 58,485 Posts

    Thumbs up [ฝรั่ง]-Loki.S01E01.Glorious.Purpose.REPACK.1080p.WEB-DL.DDP5.1.H.264-KITTER TH-WEB-DL.H.264.1080p. [From HD-TV]-[Soundtrack บรรยายไทย ดูรู้เรื่อง]



    Loki Season 1 เรื่องราวของ โลกิ เทพเจ้าแห่งการโกหกและหลอกลวง เมื่อเหล่าฮีโร่เปลี่ยนโฉมหน้าประวัติศาสตร์ใน Avengers: Endgame และเปิดโอกาสให้ Loki ได้หนีไปพร้อมกับอัญมณี Space Stone ก่อให้เกิดจักรวาลคู่ขนานขึ้น และเป็นจุดเริ่มต้นของซีรีส์ Loki ใน Disney+ ซึ่งเรามักได้เห็น โลกิ ในด้านที่หลากหลาย ทั้งศัตรู, เพื่อน, พี่น้อง และเหยื่อ ซึ่งดูคลุมเครือมาตลอด และดูเหมือนว่าความคลุมเครือนั้นจะกลายเป็นใจความสำค ัญใน Loki ซีรีส์เดี่ยวเรื่องแรกของ ทอม ฮิดเดิลสตัน ในบทโลกิ ที่จะเป็นการเข้าไปสำรวจตัวตนในหลายๆ แง่มุมของตัวละครนี้

    Audio
    ID : 2
    Format : E-AC-3 JOC
    Format/Info : Enhanced AC-3 with Joint Object Coding
    Commercial name : Dolby Digital Plus with Dolby Atmos
    Format settings : Dolby Surround EX
    Codec ID : A_EAC3
    Duration : 51 min 30 s
    Bit rate mode : Constant
    Bit rate : 768 kb/s
    Channel(s) : 6 channels
    Channel layout : L R C LFE Ls Rs
    Sampling rate : 48.0 kHz
    Frame rate : 31.250 FPS (1536 SPF)
    Compression mode : Lossy
    Stream size : 283 MiB (12%)
    Title : English
    Language : English
    Service kind : Complete Main
    Default : Yes
    Forced : No
    Complexity index : 16
    Number of dynamic objects : 15
    Bed channel count : 1 channel
    Bed channel configuration : LFE
    ------------------

    ID : 19
    Format : UTF-8
    Codec ID : S_TEXT/UTF8
    Codec ID/Info : UTF-8 Plain Text
    Duration : 50 min 5 s
    Bit rate : 138 b/s
    Count of elements : 687
    Stream size : 50.7 KiB (0%)
    Language : Thai
    Default : Yes
    Forced : No







    [Soundtrack บรรยายไทย ดูรู้เรื่อง]
    Download:cornfile
    http://cornfile.com/gjiu5o14y3c9
    Download:filecondo
    http://www.filecondo.com/dl.php?f=r2d72e1LRb1i

  2. The Following 3 Users Say Thank You to Duckload.us For This Useful Post:

    agg001 (06-11-2021), bigbang06 (06-10-2021), nananass (06-10-2021)

  3. #2
    Junior Member
    สมัครเมื่อ
    Sep 2017
    โพสต์
    23
    Thanks
    18
    Thanked 0 Times in 0 Posts
    ขอบคุณครับ ดูซ้ำอีก

  4. #3
    Senior Member
    สมัครเมื่อ
    Jan 2011
    โพสต์
    788
    Thanks
    1,072
    Thanked 0 Times in 0 Posts
    ขอบคุณครับ สนุกมากครับ

+ ตอบกลับกระทู้

ข้อมูลกระทู้

Users Browsing this Thread

ในขณะนี้มี 1 ท่านดูกระทู้อยู่. (0 สมาชิกและ 1 ผู้เยี่ยมชม)

     

กฎการโพสต์ข้อความ

  • ท่าน ไม่สามารถ ตั้งกระทู้ใหม่ได้
  • ท่าน ไม่สามารถ ตอบกระทู้ได้
  • ท่าน ไม่สามารถ แนบไฟล์ได้
  • ท่าน ไม่สามารถ แก้ไขข้อความโพสต์ได้
  • BB code สถานะ เปิด
  • Smilies สถานะ เปิด
  • [IMG] สถานะ เปิด
  • HTML สถานะ ปิด