+ ตอบกลับกระทู้
สรุปผลการค้นหา 1 ถึง 3 จากทั้งหมด 3
  1. #1
    Administrators รูปส่วนตัว Duckload.us
    สมัครเมื่อ
    Dec 2010
    โพสต์
    127,911
    Thanks
    7
    Thanked 132,094 Times in 58,485 Posts

    Thumbs up Detective Conan: The Scarlet Alibi ยอดนักสืบจิ๋วโคนัน ผ่าปริศนาปมมรณะ-Remux.H.264.1080p. [Master]-[พากย์ไทย]



    ยอดนักสืบจิ๋วโคนัน ผ่าปริศนาปมมรณะ Detective Conan: The Scarlet Alibi
    เมื่อการเสียชีวิตของ อากาอิ ชูอิจิ ที่สันเขาไรฮะ
    กลายเป็นจุดชนวนที่ทำให้ อามุโร่ โทรุ หรือ เบอร์เบิ้น
    ศัตรูเก่าพยายามเฟ้นหาร่องรอยของชูอิจิ จากคดีๆ หนึ่งของเอฟบีไอ
    ซึ่งอามุโร่ได้ตามสืบจากความสัมพันธ์ระหว่าง อากาอิ ชูอิจิ และ โอกิยะ สึบารุ
    คำตอบอันน่าตื่นตะลึงจึงค่อย ๆ ปรากฏขึ้น และ การปรากฏตัวของ โคนัน
    อันเป็นจุดเริ่มต้นของเรื่องราวอีกมากมาย การคลี่คลายปมปริศนา

    Format : Matroska
    Format version : Version 4
    File size : 8.18 GiB
    Duration : 1 h 32 min
    Overall bit rate : 12.6 Mb/s
    Encoded date : UTC 2021-06-09 11:46:41
    Writing application : mkvmerge v56.1.0 ('My Friend') 64-bit
    Writing library : libebml v1.4.2 + libmatroska v1.6.4

    Video
    ID : 1
    Format : AVC
    Format/Info : Advanced Video Codec
    Format profile : [email protected]
    Format settings : CABAC / 1 Ref Frames
    Format settings, CABAC : Yes
    Format settings, Reference frames : 1 frame
    Format settings, GOP : M=1, N=15
    Codec ID : V_MPEG4/ISO/AVC
    Duration : 1 h 32 min
    Bit rate : 12.4 Mb/s
    Width : 1 920 pixels
    Height : 1 080 pixels
    Display aspect ratio : 16:9
    Frame rate mode : Constant
    Frame rate : 29.970 (29970/1000) FPS
    Color space : YUV
    Chroma subsampling : 4:2:0
    Bit depth : 8 bits
    Scan type : Progressive
    Bits/(Pixel*Frame) : 0.200
    Stream size : 8.06 GiB (98%)
    Default : Yes
    Forced : No

    Audio
    ID : 2
    Format : AAC LC SBR
    Format/Info : Advanced Audio Codec Low Complexity with Spectral Band Replication
    Commercial name : HE-AAC
    Format settings : Implicit
    Codec ID : A_AAC-2
    Duration : 1 h 32 min
    Bit rate : 192 kb/s
    Channel(s) : 2 channels
    Channel layout : L R
    Sampling rate : 96.0 kHz
    Frame rate : 46.875 FPS (2048 SPF)
    Compression mode : Lossy
    Stream size : 125 MiB (1%)
    Default : Yes
    Forced : No





    8.2 GB
    Download:cornfile
    http://cornfile.com/4zjvg44ok0w0
    Download:filecondo
    http://www.filecondo.com/dl.php?f=pc6f241LRbsS

  2. The Following 2 Users Say Thank You to Duckload.us For This Useful Post:

    sawara (06-10-2021), Wesker_TOT (06-10-2021)

  3. #2
    Senior Member
    สมัครเมื่อ
    Dec 2013
    โพสต์
    2,997
    Thanks
    4,916
    Thanked 0 Times in 0 Posts
    ขอบคุณครับ...

  4. #3
    Senior Member
    สมัครเมื่อ
    Dec 2013
    โพสต์
    422
    Thanks
    355
    Thanked 0 Times in 0 Posts
    ขอบคุณครับ

+ ตอบกลับกระทู้

ข้อมูลกระทู้

Users Browsing this Thread

ในขณะนี้มี 2 ท่านดูกระทู้อยู่. (0 สมาชิกและ 2 ผู้เยี่ยมชม)

     

กฎการโพสต์ข้อความ

  • ท่าน ไม่สามารถ ตั้งกระทู้ใหม่ได้
  • ท่าน ไม่สามารถ ตอบกระทู้ได้
  • ท่าน ไม่สามารถ แนบไฟล์ได้
  • ท่าน ไม่สามารถ แก้ไขข้อความโพสต์ได้
  • BB code สถานะ เปิด
  • Smilies สถานะ เปิด
  • [IMG] สถานะ เปิด
  • HTML สถานะ ปิด