เมื่ออดีตนักศึกษาแพทย์ออกล้างแค้นหนุ่มโปรไฟล์ดี ความแซ่บที่มาพร้อมกับความบันเทิงจึงเกิดขึ้น Promising Young Woman สาวซ่าส์ล่าบัญชีแค้น คือผลงานกำกับเรื่องแรกโดยผู้กำกับวิสัยทัศน์ไกล เอเมอรัลด์ เฟนเนลล์ (จาก Killing Eve) นำเสนอเรื่องราวการล้างแค้นสุดแซ่บ ทุกคนต่างบอกว่าแคสซี่เคยเป็นหญิงสาวผู้มีอนาคตไกล จนกระทั่งเหตุการณ์ลึกลับเกิดขึ้นและทำให้อนาคตของเธ อดับวูบ แต่ชีวิตของเธอไม่ได้เป็นอย่างที่เห็น เธอฉลาดเป็นกรด มีเล่ห์เหลี่ยม และใช้ชีวิตในยามค่ำคืนแบบลับ ๆ ตอนนี้ การเผชิญหน้าแบบไม่คาดคิด กำลังจะทำให้แคสซี่พลิกสิ่งที่ผิดพลาดในอดีตให้ถูกต้ อง[/B]


Duration : 1 h 53 min
Overall bit rate : 2 131 kb/s
Encoded date : UTC 2021-06-09 05:48:21
Writing application : mkvmerge v57.0.0 ('Till The End') 64-bit
Writing library : libebml v1.4.2 + libmatroska v1.6.4
Cover : Yes
Attachments : cover

Video
ID : 1
Format : HEVC
Format/Info : High Efficiency Video Coding
Format profile : Main [email protected]@High
Codec ID : V_MPEGH/ISO/HEVC
Duration : 1 h 53 min
Bit rate : 1 763 kb/s
Width : 3 840 pixels
Height : 1 600 pixels
Display aspect ratio : 2.40:1
Frame rate mode : Constant
Frame rate : 23.976 (24000/1001) FPS
Color space : YUV
Chroma subsampling : 4:2:0
Bit depth : 10 bits
Bits/(Pixel*Frame) : 0.012
Stream size : 1.40 GiB (83%)
Writing library : x265 3.2.1+1-b5c86a64bbbe:[Windows][GCC 9.2.0][64 bit] 10bit
Encoding settings : cpuid=1049583 / frame-threads=5 / numa-pools=16,16 / wpp / no-pmode / no-pme / no-psnr / no-ssim / log-level=2 / input-csp=1 / input-res=3840x1600 / interlace=0 / total-frames=0 / level-idc=50 / high-tier=1 / uhd-bd=0 / ref=1 / no-allow-non-conformance / no-repeat-headers / annexb / no-aud / no-hrd / info / hash=0 / no-temporal-layers / open-gop / min-keyint=24 / keyint=240 / gop-lookahead=0 / bframes=0 / b-adapt=0 / no-b-pyramid / bframe-bias=0 / rc-lookahead=8 / lookahead-slices=0 / scenecut=90 / radl=0 / no-splice / no-intra-refresh / ctu=32 / min-cu-size=32 / no-rect / no-amp / max-tu-size=32 / tu-inter-depth=3 / tu-intra-depth=3 / limit-tu=0 / rdoq-level=2 / dynamic-rd=0.00 / no-ssim-rd / signh-i-d-e / no-tskip / nr-intra=0 / nr-inter=0 / no-constrained-intra / strong-intra-smoothing / max-merge=4 / limit-refs=0 / no-limit-modes / me=4 / subme=7 / merange=85 / temporal-mvp / no-hme / weightp / weightb / no-analyze-src-pics / deblock=0:0 / sao / no-sao-non-deblock / rd=1 / selective-sao=4 / no-early-skip / rskip / no-fast-intra / no-tskip-fast / no-cu-lossless / b-intra / no-splitrd-skip / rdpenalty=0 / psy-rd=0.00 / psy-rdoq=0.00 / no-rd-refine / no-lossless / cbqpoffs=-6 / crqpoffs=-2 / rc=crf / crf=28.5 / qcomp=0.60 / qpstep=4 / stats-write=0 / stats-read=0 / vbv-maxrate=100000 / vbv-bufsize=100000 / vbv-init=0.9 / crf-max=0.0 / crf-min=0.0 / ipratio=1.20 / aq-mode=3 / aq-strength=1.20 / cutree / zone-count=0 / no-strict-cbr / qg-size=32 / no-rc-grain / qpmax=69 / qpmin=0 / no-const-vbv / sar=1 / overscan=0 / videoformat=5 / range=1 / colorprim=9 / transfer=16 / colormatrix=9 / chromaloc=0 / display-window=0 / cll=0,0 / min-luma=0 / max-luma=1023 / log2-max-poc-lsb=8 / vui-timing-info / vui-hrd-info / slices=1 / no-opt-qp-pps / no-opt-ref-list-length-pps / no-multi-pass-opt-rps / scenecut-bias=0.90 / no-opt-cu-delta-qp / no-aq-motion / no-hdr / no-hdr-opt / no-dhdr10-opt / no-idr-recovery-sei / analysis-reuse-level=5 / scale-factor=0 / refine-intra=0 / refine-inter=0 / refine-mv=1 / refine-ctu-distortion=0 / no-limit-sao / ctu-info=0 / no-lowpass-dct / refine-analysis-type=0 / copy-pic=1 / max-ausize-factor=1.0 / no-dynamic-refine / no-single-sei / no-hevc-aq / no-svt / no-field / qp-adaptation-range=1.00
Default : Yes
Forced : No
Color range : Full
Color primaries : BT.2020
Transfer characteristics : PQ
Matrix coefficients : BT.2020 non-constant

Audio
ID : 2
Format : AC-3
Format/Info : Audio Coding 3
Commercial name : Dolby Digital
Codec ID : A_AC3
Duration : 1 h 53 min
Bit rate mode : Constant
Bit rate : 320 kb/s
Channel(s) : 6 channels
Channel layout : L R C LFE Ls Rs
Sampling rate : 48.0 kHz
Frame rate : 31.250 FPS (1536 SPF)
Compression mode : Lossy
Delay relative to video : -5 ms
Stream size : 261 MiB (15%)
Language : English
Service kind : Complete Main
Default : Yes
Forced : No

Text #1
ID : 3
Format : UTF-8
Codec ID : S_TEXT/UTF8
Codec ID/Info : UTF-8 Plain Text
Duration : 1 h 53 min
Bit rate : 78 b/s
Count of elements : 2331
Stream size : 65.1 KiB (0%)
Language : English
Default : No
Forced : No

Text #2
ID : 4
Format : PGS
Muxing mode : zlib
Codec ID : S_HDMV/PGS
Codec ID/Info : Picture based subtitle format used on BDs/HD-DVDs
Duration : 1 h 53 min
Bit rate : 55.0 kb/s
Count of elements : 4662
Stream size : 44.6 MiB (3%)
Language : English
Default : No
Forced : No

Text #3
ID : 5
Format : UTF-8
Codec ID : S_TEXT/UTF8
Codec ID/Info : UTF-8 Plain Text
Duration : 1 h 47 min
Bit rate : 146 b/s
Count of elements : 1813
Stream size : 115 KiB (0%)
Language : Thai
Default : No
Forced : No

Text #4
ID : 6
Format : PGS
Muxing mode : zlib
Codec ID : S_HDMV/PGS
Codec ID/Info : Picture based subtitle format used on BDs/HD-DVDs
Duration : 1 h 47 min
Bit rate : 38.2 kb/s
Count of elements : 3626
Stream size : 29.3 MiB (2%)
Language : Thai
Default : Yes
Forced : No



http://cornfile.com/nw36u55z9z5b