+ ตอบกลับกระทู้
สรุปผลการค้นหา 1 ถึง 4 จากทั้งหมด 4
  1. #1
    Administrators รูปส่วนตัว Duckload.us
    สมัครเมื่อ
    Dec 2010
    โพสต์
    129,769
    Thanks
    7
    Thanked 133,686 Times in 59,197 Posts

    Thumbs up [ฝรั่ง]-Furious (2017)-Blu-ray.DTS.1080p. [Modified]-[พากย์รัสเซีย 5.1 อังกฤษ 5.1 บรรยายไทย (แปล)-อังกฤษ]

    [IMG][/IMG]


    A story of a legendary battle, where seventeen fearless warriors defend their land against an army of thousands well-trained soldiers. In 13th-century Mongol warrior hordes and their leader, Batu Khan, control most of the known world. As the Mongols move towards Europe they invade the last Russian principality standing in their way. Little do they know, their plans are to be ruined by a small detachment of heroic strong men led by a mysterious brave warrior. This is a story courage, endurance and self-sacrifice for the sake of one's country. This is the story of Evpaty the Furious.

    Format : Matroska
    Format version : Version 4
    File size : 5.79 GiB
    Duration : 1 h 59 min
    Overall bit rate : 6 908 kb/s
    Encoded date : UTC 2021-06-12 19:05:48
    Writing application : mkvmerge v57.0.0 ('Till The End') 64-bit
    Writing library : libebml v1.4.2 + libmatroska v1.6.4

    Video
    ID : 1
    Format : AVC
    Format/Info : Advanced Video Codec
    Format profile : [email protected]
    Format settings : CABAC / 3 Ref Frames
    Format settings, CABAC : Yes
    Format settings, Reference : 3 frames
    Codec ID : V_MPEG4/ISO/AVC
    Duration : 1 h 59 min
    Bit rate : 3 874 kb/s
    Width : 1 920 pixels
    Height : 804 pixels
    Display aspect ratio : 2.40:1
    Frame rate mode : Constant
    Frame rate : 24.000 FPS
    Color space : YUV
    Chroma subsampling : 4:2:0
    Bit depth : 8 bits
    Scan type : Progressive
    Bits/(Pixel*Frame) : 0.105
    Stream size : 3.25 GiB (56%)
    Language : Russian
    Default : Yes
    Forced : No

    Audio #1
    ID : 2
    Format : DTS
    Format/Info : Digital Theater Systems
    Codec ID : A_DTS
    Duration : 1 h 59 min
    Bit rate mode : Constant
    Bit rate : 1 509 kb/s
    Channel(s) : 6 channels
    Channel layout : C L R Ls Rs LFE
    Sampling rate : 48.0 kHz
    Frame rate : 93.750 FPS (512 SPF)
    Bit depth : 24 bits
    Compression mode : Lossy
    Stream size : 1.26 GiB (22%)
    Title : DTS Russian
    Language : Russian
    Default : Yes
    Forced : No

    Audio #2
    ID : 3
    Format : DTS
    Format/Info : Digital Theater Systems
    Codec ID : A_DTS
    Duration : 1 h 59 min
    Bit rate mode : Constant
    Bit rate : 1 509 kb/s
    Channel(s) : 6 channels
    Channel layout : C L R Ls Rs LFE
    Sampling rate : 48.0 kHz
    Frame rate : 93.750 FPS (512 SPF)
    Bit depth : 24 bits
    Compression mode : Lossy
    Stream size : 1.26 GiB (22%)
    Title : DTS English
    Language : English
    Default : No
    Forced : No

    Text #1
    ID : 4
    Format : VobSub
    Muxing mode : zlib
    Codec ID : S_VOBSUB
    Codec ID/Info : Picture based subtitle format used on DVDs
    Duration : 1 h 51 min
    Bit rate : 7 738 b/s
    Count of elements : 751
    Stream size : 6.18 MiB (0%)
    Title : Sub Thai 1080p
    Language : Thai
    Default : No
    Forced : No

    Text #2
    ID : 5
    Format : UTF-8
    Codec ID : S_TEXT/UTF8
    Codec ID/Info : UTF-8 Plain Text
    Duration : 1 h 51 min
    Bit rate : 80 b/s
    Count of elements : 751
    Stream size : 65.6 KiB (0%)
    Title : Sub Thai SRT
    Language : Thai
    Default : No
    Forced : No

    Text #3
    ID : 6
    Format : PGS
    Muxing mode : zlib
    Codec ID : S_HDMV/PGS
    Codec ID/Info : Picture based subtitle format used on BDs/HD-DVDs
    Duration : 1 h 51 min
    Bit rate : 21.5 kb/s
    Count of elements : 1502
    Stream size : 17.1 MiB (0%)
    Title : Sub Thai PGS
    Language : Thai
    Default : Yes
    Forced : No

    Text #4
    ID : 7
    Format : UTF-8
    Codec ID : S_TEXT/UTF8
    Codec ID/Info : UTF-8 Plain Text
    Duration : 1 h 51 min
    Bit rate : 30 b/s
    Count of elements : 765
    Stream size : 25.3 KiB (0%)
    Title : Sub English SRT
    Language : English
    Default : No
    Forced : No

    Menu
    00:00:00.000 : 00:00:00.000
    00:08:29.875 : 00:08:29.875
    00:17:16.000 : 00:17:16.000
    00:27:27.292 : 00:27:27.292
    00:38:10.125 : 00:38:10.125
    00:45:28.917 : 00:45:28.917
    00:55:24.542 : 00:55:24.542
    01:04:33.250 : 01:04:33.250
    01:13:32.125 : 01:13:32.125
    01:24:51.833 : 01:24:51.833
    01:31:42.417 : 01:31:42.417
    01:40:51.000 : 01:40:51.000
    01:52:43.917 : 01:52:43.917






    Download:cornfile
    Furious (2017).mkv - 5.8 GB
    Furious.2017.1080p.BluRay.x264.mkv - 11.0 GB
    Download:filecondo
    Furious (2017).mkv - 5.8 GB
    Furious.2017.1080p.BluRay.x264.mkv - 11.0 GB

  2. The Following User Says Thank You to Duckload.us For This Useful Post:

    noi54 (06-14-2021)

  3. #2
    Senior Member
    สมัครเมื่อ
    Jul 2013
    โพสต์
    2,514
    Thanks
    0
    Thanked 0 Times in 0 Posts
    ขอบคุณครับ

  4. #3
    Senior Member
    สมัครเมื่อ
    Jun 2012
    โพสต์
    1,409
    Thanks
    0
    Thanked 1 Time in 1 Post
    ขอบคุณมากครับ

  5. #4
    Senior Member
    สมัครเมื่อ
    Jul 2012
    โพสต์
    7,623
    Thanks
    0
    Thanked 0 Times in 0 Posts
    ขอบคุณมากจ้า

+ ตอบกลับกระทู้

ข้อมูลกระทู้

Users Browsing this Thread

ในขณะนี้มี 1 ท่านดูกระทู้อยู่. (0 สมาชิกและ 1 ผู้เยี่ยมชม)

     

กฎการโพสต์ข้อความ

  • ท่าน ไม่สามารถ ตั้งกระทู้ใหม่ได้
  • ท่าน ไม่สามารถ ตอบกระทู้ได้
  • ท่าน ไม่สามารถ แนบไฟล์ได้
  • ท่าน ไม่สามารถ แก้ไขข้อความโพสต์ได้
  • BB code สถานะ เปิด
  • Smilies สถานะ เปิด
  • [IMG] สถานะ เปิด
  • HTML สถานะ ปิด