+ ตอบกลับกระทู้
สรุปผลการค้นหา 1 ถึง 2 จากทั้งหมด 2
  1. #1
    Administrators รูปส่วนตัว Duckload.us
    สมัครเมื่อ
    Dec 2010
    โพสต์
    129,844
    Thanks
    7
    Thanked 133,711 Times in 59,209 Posts

    Thumbs up [ฝรั่ง]-[AMAZON] The Misfits (2021) พยัคฆ์ทรชน ปล้นพลิกโลก-WEB-DL.EAC-3.1080p. [Modified]-[พากย์อังกฤษ 5.1 บรรยายไทย-อังกฤษ]




    เรื่องราวของกลุ่ม โรบิน ฮู้ดส์ ยุคใหม่ที่รู้จักกันในนาม The Misfits ที่นำโดย ริชาร์ด เพซ (เพียร์ซ บรอสแนน) หัวขโมยชื่อดังที่ออกมานำทีมปล้นครั้งใหญ่แห่งศตวรรษ โดยมีเป้าหมายเป็นทองคำแท่งที่ซ่อนอยู่ใต้เรือนจำที่ ปลอดภัยที่สุดแห่งหนึ่งของโลก

    Format : Matroska
    Format version : Version 4
    File size : 4.19 GiB
    Duration : 1 h 34 min
    Overall bit rate : 6 360 kb/s
    Encoded date : UTC 2021-06-15 14:35:21
    Writing application : mkvmerge v58.0.0 ('Supper's Ready') 64-bit
    Writing library : libebml v1.4.2 + libmatroska v1.6.4

    Video
    ID : 1
    Format : AVC
    Format/Info : Advanced Video Codec
    Format profile : [email protected]
    Format settings : CABAC / 3 Ref Frames
    Format settings, CABAC : Yes
    Format settings, Reference : 3 frames
    Codec ID : V_MPEG4/ISO/AVC
    Duration : 1 h 34 min
    Bit rate : 5 693 kb/s
    Width : 1 920 pixels
    Height : 800 pixels
    Display aspect ratio : 2.40:1
    Frame rate mode : Constant
    Frame rate : 23.976 (24000/1001) FPS
    Color space : YUV
    Chroma subsampling : 4:2:0
    Bit depth : 8 bits
    Scan type : Progressive
    Bits/(Pixel*Frame) : 0.155
    Stream size : 3.75 GiB (90%)
    Language : English
    Default : Yes
    Forced : No
    Color range : Limited
    Color primaries : BT.709
    Transfer characteristics : BT.709
    Matrix coefficients : BT.709

    Audio
    ID : 2
    Format : E-AC-3
    Format/Info : Enhanced AC-3
    Commercial name : Dolby Digital Plus
    Codec ID : A_EAC3
    Duration : 1 h 34 min
    Bit rate mode : Constant
    Bit rate : 640 kb/s
    Channel(s) : 6 channels
    Channel layout : L R C LFE Ls Rs
    Sampling rate : 48.0 kHz
    Frame rate : 31.250 FPS (1536 SPF)
    Compression mode : Lossy
    Stream size : 432 MiB (10%)
    Title : E-AC3 English
    Language : English
    Service kind : Complete Main
    Default : Yes
    Forced : No

    Text #1
    ID : 3
    Format : VobSub
    Muxing mode : zlib
    Codec ID : S_VOBSUB
    Codec ID/Info : Picture based subtitle format used on DVDs
    Duration : 1 h 26 min
    Bit rate : 14.2 kb/s
    Count of elements : 1083
    Stream size : 8.84 MiB (0%)
    Title : Sub Thai 1080p
    Language : Thai
    Default : No
    Forced : No

    Text #2
    ID : 4
    Format : UTF-8
    Codec ID : S_TEXT/UTF8
    Codec ID/Info : UTF-8 Plain Text
    Duration : 1 h 26 min
    Bit rate : 146 b/s
    Count of elements : 1081
    Stream size : 93.2 KiB (0%)
    Title : Sub Thai SRT
    Language : Thai
    Default : No
    Forced : No

    Text #3
    ID : 5
    Format : PGS
    Muxing mode : zlib
    Codec ID : S_HDMV/PGS
    Codec ID/Info : Picture based subtitle format used on BDs/HD-DVDs
    Duration : 1 h 26 min
    Bit rate : 39.1 kb/s
    Count of elements : 2166
    Stream size : 24.3 MiB (1%)
    Title : Sub Thai PGS
    Language : Thai
    Default : Yes
    Forced : No

    Text #4
    ID : 6
    Format : UTF-8
    Codec ID : S_TEXT/UTF8
    Codec ID/Info : UTF-8 Plain Text
    Duration : 1 h 26 min
    Bit rate : 64 b/s
    Count of elements : 1103
    Stream size : 41.1 KiB (0%)
    Title : Sub English SRT
    Language : English
    Default : No
    Forced : No






    Download:cornfile
    The Misfits (2021) พยัคฆ์ทรชน ปล้นพลิกโลก.1080p.AMZN.WEB-DL.DDP5.1.H.264-Burin.mkv - 5.3 GB
    The.Misfits.2021.1080p.WEBRip.x264.mkv - 1.8 GB
    The Misfits (2021).mkv - 4.2 GB
    The.Misfits.2021.1080p.The.Misfits.2021.1080p.HDRi p.x264.E-AC3-5.1-Sub.THA.PGS-ENG.mkv - 3.3 GB
    Download:filecondo
    The Misfits (2021) พยัคฆ์ทรชน ปล้นพลิกโลก.1080p.AMZN.WEB-DL.DDP5.1.H.264-Burin.mkv - 5.3 GB
    The.Misfits.2021.1080p.WEBRip.x264.mkv - 1.8 GB
    The Misfits (2021).mkv - 4.2 GB
    The.Misfits.2021.1080p.The.Misfits.2021.1080p.HDRi p.x264.E-AC3-5.1-Sub.THA.PGS-ENG.mkv - 3.3 GB

  2. The Following 3 Users Say Thank You to Duckload.us For This Useful Post:

    NaiWan (06-22-2021), noi54 (06-17-2021), virusring (06-17-2021)

  3. #2
    Senior Member
    สมัครเมื่อ
    Jul 2013
    โพสต์
    2,517
    Thanks
    0
    Thanked 0 Times in 0 Posts
    ขอบคุณครับ

+ ตอบกลับกระทู้

ข้อมูลกระทู้

Users Browsing this Thread

ในขณะนี้มี 1 ท่านดูกระทู้อยู่. (0 สมาชิกและ 1 ผู้เยี่ยมชม)

     

กฎการโพสต์ข้อความ

  • ท่าน ไม่สามารถ ตั้งกระทู้ใหม่ได้
  • ท่าน ไม่สามารถ ตอบกระทู้ได้
  • ท่าน ไม่สามารถ แนบไฟล์ได้
  • ท่าน ไม่สามารถ แก้ไขข้อความโพสต์ได้
  • BB code สถานะ เปิด
  • Smilies สถานะ เปิด
  • [IMG] สถานะ เปิด
  • HTML สถานะ ปิด