+ ตอบกลับกระทู้
สรุปผลการค้นหา 1 ถึง 7 จากทั้งหมด 7
  1. #1
    Administrators รูปส่วนตัว Duckload.us
    สมัครเมื่อ
    Dec 2010
    โพสต์
    129,844
    Thanks
    7
    Thanked 133,711 Times in 59,209 Posts

    Thumbs up [ญี่ปุ่น]-[Netflix] Rurouni Kenshin The Final (2021) รูโรนิ เคนชิน ซามูไรพเนจร ปัจฉิมบท [เสียง:ญี่ปุ่น-ไทย AC-3 5.1][บรรยาย: ไทย-ญี่ปุ่น PGS/SRT-อังกฤษ SRT Netflix]-WEB-DL.H.264.1080p. [Netflix (web-dl)]-[พากย์ไทย บรรยายไทย]




    Rurouni Kenshin: The Final
    บอกเล่าเรื่องราวของ ฮิมูระ เคนชิน (ทาเครุ ซาโต้) ที่ต้องการเผชิญหน้ากับตัวร้ายที่โหดกว่าเดิมอย่าง ยูกิชิโระ เอนิชิ (แมคเคนยู อาราตะ) พ่อค้าอาวุธใต้ดินผู้ทรงอิทธิพลจากแผ่นดินจีนที่มาพร ้อมกับเพลงดาบวาโตะ มาเป็นคู่ปรับคนสำคัญของเพลงดาบล่องนภาของเคนชิน และในภาค Rurouni Kenshin: The Beginning จะทำหน้าที่พาผู้ชมย้อนเวลากลับไปยังจุดเริ่มต้นของม ือพิฆาตบัตโตไซบนเส้นทางที่อบอวลไปด้วยกลิ่นคาวเลือด และที่มาของแผลเป็นรูปกากบาทบนใบหน้าของเขา

    Video
    ID : 1
    Format : AVC
    Format/Info : Advanced Video Codec
    Format profile : [email protected]
    Format settings : CABAC / 4 Ref Frames
    Format settings, CABAC : Yes
    Format settings, Reference fra : 4 frames
    Codec ID : V_MPEG4/ISO/AVC
    Duration : 2 h 19 min
    Bit rate : 3 547 kb/s
    Width : 1 920 pixels
    Height : 1 080 pixels
    Display aspect ratio : 16:9
    Frame rate mode : Constant
    Frame rate : 23.976 (24000/1001) FPS
    Color space : YUV
    Chroma subsampling : 4:2:0
    Bit depth : 8 bits
    Scan type : Progressive
    Bits/(Pixel*Frame) : 0.071
    Stream size : 3.44 GiB (73%)
    Default : Yes
    Forced : No

    Audio #1
    ID : 2
    Format : E-AC-3
    Format/Info : Enhanced AC-3
    Commercial name : Dolby Digital Plus
    Codec ID : A_EAC3
    Duration : 2 h 19 min
    Bit rate mode : Constant
    Bit rate : 640 kb/s
    Channel(s) : 6 channels
    Channel layout : L R C LFE Ls Rs
    Sampling rate : 48.0 kHz
    Frame rate : 31.250 FPS (1536 SPF)
    Compression mode : Lossy
    Stream size : 637 MiB (13%)
    Title : [Thai-AC-3]
    Language : Thai
    Service kind : Complete Main
    Default : Yes
    Forced : No

    Audio #2
    ID : 3
    Format : E-AC-3
    Format/Info : Enhanced AC-3
    Commercial name : Dolby Digital Plus
    Codec ID : A_EAC3
    Duration : 2 h 19 min
    Bit rate mode : Constant
    Bit rate : 640 kb/s
    Channel(s) : 6 channels
    Channel layout : L R C LFE Ls Rs
    Sampling rate : 48.0 kHz
    Frame rate : 31.250 FPS (1536 SPF)
    Compression mode : Lossy
    Stream size : 637 MiB (13%)
    Title : [Japanese-AC-3]
    Language : Japanese
    Service kind : Complete Main
    Default : No
    Forced : No

    Text #1
    ID : 4
    Format : PGS
    Muxing mode : zlib
    Codec ID : S_HDMV/PGS
    Codec ID/Info : Picture based subtitle format used on BDs/HD-DVDs
    Duration : 2 h 17 min
    Bit rate : 618 b/s
    Count of elements : 106
    Stream size : 621 KiB (0%)
    Title : [Thai Netflix Forced PGS]
    Language : Thai
    Default : Yes
    Forced : No

    Text #2
    ID : 5
    Format : PGS
    Muxing mode : zlib
    Codec ID : S_HDMV/PGS
    Codec ID/Info : Picture based subtitle format used on BDs/HD-DVDs
    Duration : 2 h 17 min
    Bit rate : 10.6 kb/s
    Count of elements : 1692
    Stream size : 10.5 MiB (0%)
    Title : [Thai Netflix PGS]
    Language : Thai
    Default : No
    Forced : No

    Text #3
    ID : 6
    Format : PGS
    Muxing mode : zlib
    Codec ID : S_HDMV/PGS
    Codec ID/Info : Picture based subtitle format used on BDs/HD-DVDs
    Duration : 2 h 0 min
    Bit rate : 285 b/s
    Count of elements : 52
    Stream size : 251 KiB (0%)
    Title : [Japanese Netflix Forced PGS]
    Language : Japanese
    Default : No
    Forced : No

    Text #4
    ID : 7
    Format : PGS
    Muxing mode : zlib
    Codec ID : S_HDMV/PGS
    Codec ID/Info : Picture based subtitle format used on BDs/HD-DVDs
    Duration : 2 h 17 min
    Bit rate : 11.9 kb/s
    Count of elements : 2248
    Stream size : 11.7 MiB (0%)
    Title : [Japanese Netflix PGS]
    Language : Japanese
    Default : No
    Forced : No

    Text #5
    ID : 8
    Format : UTF-8
    Codec ID : S_TEXT/UTF8
    Codec ID/Info : UTF-8 Plain Text
    Duration : 2 h 17 min
    Bit rate : 3 b/s
    Count of elements : 53
    Stream size : 3.28 KiB (0%)
    Title : SRT Forced
    Language : Thai
    Default : No
    Forced : No

    Text #6
    ID : 9
    Format : UTF-8
    Codec ID : S_TEXT/UTF8
    Codec ID/Info : UTF-8 Plain Text
    Duration : 2 h 17 min
    Bit rate : 57 b/s
    Count of elements : 846
    Stream size : 58.3 KiB (0%)
    Title : SRT
    Language : Thai
    Default : No
    Forced : No

    Text #7
    ID : 10
    Format : UTF-8
    Codec ID : S_TEXT/UTF8
    Codec ID/Info : UTF-8 Plain Text
    Duration : 2 h 0 min
    Bit rate : 1 b/s
    Count of elements : 26
    Stream size : 1.59 KiB (0%)
    Title : SRT Forced
    Language : Japanese
    Default : No
    Forced : No

    Text #8
    ID : 11
    Format : UTF-8
    Codec ID : S_TEXT/UTF8
    Codec ID/Info : UTF-8 Plain Text
    Duration : 2 h 17 min
    Bit rate : 74 b/s
    Count of elements : 1124
    Stream size : 74.7 KiB (0%)
    Title : SRT
    Language : Japanese
    Default : No
    Forced : No

    Text #9
    ID : 12
    Format : UTF-8
    Codec ID : S_TEXT/UTF8
    Codec ID/Info : UTF-8 Plain Text
    Duration : 2 h 17 min
    Bit rate : 1 b/s
    Count of elements : 51
    Stream size : 1.26 KiB (0%)
    Title : SRT Forced
    Language : English
    Default : No
    Forced : No

    Text #10
    ID : 13
    Format : UTF-8
    Codec ID : S_TEXT/UTF8
    Codec ID/Info : UTF-8 Plain Text
    Duration : 2 h 16 min
    Bit rate : 18 b/s
    Count of elements : 849
    Stream size : 18.8 KiB (0%)
    Title : SRT
    Language : English
    Default : No
    Forced : No









    Download:cornfile
    Rurouni Kenshin The Final (2021) รูโรนิ เคนชิน ซามูไรพเนจร ปัจฉิมบท 1080p.mkv - 4.7 GB
    Rurouni.Kenshin.The.Final.2021.1080p.NF.WEB-DL.DDP5.1.x264-Scaletto.mkv - 4.0 GB
    Rurouni Kenshin - The Final Part 1 (2021).mkv - 5.2 GB
    Download:filecondo
    Rurouni Kenshin The Final (2021) รูโรนิ เคนชิน ซามูไรพเนจร ปัจฉิมบท 1080p.mkv - 4.7 GB
    Rurouni.Kenshin.The.Final.2021.1080p.NF.WEB-DL.DDP5.1.x264-Scaletto.mkv - 4.0 GB
    Rurouni Kenshin - The Final Part 1 (2021).mkv - 5.2 GB


    Download:cornfile
    1.Rurouni.Kenshin.2012.BluRay.1080p.DTS.x264.mkv - 4.3 GB
    2.Rurouni.Kenshin.2.2014.Kyoto.Inferno.BluRay.1080 p.DTS.x264.mkv - 4.3 GB
    3.Rurouni.Kenshin.3.The.Legend.Ends.2014.BluRay.10 80p.DTS.x264.mkv - 4.3 GB
    Download:filecondo
    1 http://www.filecondo.com/dl.php?f=66f2ce1LUwJk
    2 http://www.filecondo.com/dl.php?f=J39f6f1LUwKi
    3 http://www.filecondo.com/dl.php?f=qbc4401LUwLg

  2. The Following 6 Users Say Thank You to Duckload.us For This Useful Post:

    gaszolineskywalker (07-14-2021), noi54 (06-19-2021), sawara (06-19-2021), spiderpud2 (07-08-2021), virusring (06-22-2021), Wesker_TOT (06-19-2021)

  3. #2
    Senior Member
    สมัครเมื่อ
    Dec 2013
    โพสต์
    3,161
    Thanks
    5,077
    Thanked 0 Times in 0 Posts
    ขอบคุณครับ...

  4. #3
    Senior Member
    สมัครเมื่อ
    Jul 2013
    โพสต์
    2,517
    Thanks
    0
    Thanked 0 Times in 0 Posts
    ขอบคุณครับ เป้น ภาคใหม่ หรือว่า ของเก่า ที่เอามาลง สตรีมใหม่อ่ะครับ

  5. #4
    ภาคใหม่ครับก็ภาค4ละครับแล้วก็มีภาคย้อนอดีตของพระเอ กอีกภาคครับ
    แก้ไขครั้งล่าสุดโดย tone3087 : 06-19-2021 เมื่อ 07:39 PM

  6. #5
    Senior Member
    สมัครเมื่อ
    Dec 2013
    โพสต์
    467
    Thanks
    401
    Thanked 0 Times in 0 Posts
    ขอบคุณครับบ

  7. #6
    Senior Member
    สมัครเมื่อ
    Jul 2013
    โพสต์
    2,517
    Thanks
    0
    Thanked 0 Times in 0 Posts
    final กับ final Part1 คนละภาคกันใช่มั้ยครับ โฆลดมาทั้งคู่ ลบทิ้งไปอันนึง เพราะเสียงไทยเบามาก จริงๆก็เบาพอๆกัน part1 เสียงดังกว่าหน่อยนึงเลยลบอีกไฟล์ทิ้งไป

  8. #7
    Senior Member
    สมัครเมื่อ
    Oct 2012
    โพสต์
    1,619
    Thanks
    2,551
    Thanked 0 Times in 0 Posts
    ขอบคุณครับ

+ ตอบกลับกระทู้

ข้อมูลกระทู้

Users Browsing this Thread

ในขณะนี้มี 1 ท่านดูกระทู้อยู่. (0 สมาชิกและ 1 ผู้เยี่ยมชม)

     

กฎการโพสต์ข้อความ

  • ท่าน ไม่สามารถ ตั้งกระทู้ใหม่ได้
  • ท่าน ไม่สามารถ ตอบกระทู้ได้
  • ท่าน ไม่สามารถ แนบไฟล์ได้
  • ท่าน ไม่สามารถ แก้ไขข้อความโพสต์ได้
  • BB code สถานะ เปิด
  • Smilies สถานะ เปิด
  • [IMG] สถานะ เปิด
  • HTML สถานะ ปิด