+ ตอบกลับกระทู้
สรุปผลการค้นหา 1 ถึง 8 จากทั้งหมด 8
  1. #1
    Administrators รูปส่วนตัว Duckload.us
    สมัครเมื่อ
    Dec 2010
    โพสต์
    131,547
    Thanks
    7
    Thanked 135,194 Times in 59,796 Posts

    Lightbulb [ฝรั่ง]-[Amazon] The Tomorrow War (2021) [เสียง:อังกฤษ AC-3 5.1][บรรยาย: ไทย PGS/SRT-อังกฤษ SRT Amazon]-WEB-DL.H.264.1080p. [Rip]-[Soundtrack บรรยายไทย]






    หนังเปิดเรื่องที่นักรบจากโลกอนาคตในอีก 30 ปี ข้างหน้า ได้ย้อนเวลามายังโลกปัจจุบัน เพื่อระดมพลคนไปร่วมรบกับกองทัพเอเลี่ยนที่มารุกรานโ ลก ในหนังเรื่องนี้ คริส แพรตต์รับบทเป็นครูมัธยมที่ร่วมเดินทางข้ามเวลาไปยัง อนาคตเพื่อร่วมรบด้วย โดยหวังที่จะปกป้องโลกอนาคตให้ลูกสาวของเขา และดูเหมือนว่าความสามารถในการการเผชิญหน้ากับอดีตขอ งเขาคือความหวังเดียวของมนุษยชาติ นักแสดงสมทบหนังยังประกอบไปด้วยอีวอนน์ สตราฮอฟสกี จาก “The Handmaid’s Tale”, เจ.เค. ซิมมอนส์ จาก “Whiplash”, เบ็ตตี้ กิลพิน จาก “Stuber”, แซม ริชาร์ดสัน จาก “Veep”, เอ็ดวิน ฮ็อดจ์ จาก “The Purge”, แจสมีน แมธิวส์, ไรอัน เคียรา อาร์มสตรอง และ คีธ พาวเวอร์ส

    Video
    ID : 1
    Format : AVC
    Format/Info : Advanced Video Codec
    Format profile : [email protected]
    Format settings : CABAC / 4 Ref Frames
    Format settings, CABAC : Yes
    Format settings, Reference fra : 4 frames
    Codec ID : V_MPEG4/ISO/AVC
    Duration : 2 h 18 min
    Bit rate mode : Constant
    Bit rate : 8 002 kb/s
    Nominal bit rate : 10 000 kb/s
    Width : 1 920 pixels
    Height : 800 pixels
    Display aspect ratio : 2.40:1
    Frame rate mode : Constant
    Frame rate : 23.976 (24000/1001) FPS
    Color space : YUV
    Chroma subsampling : 4:2:0
    Bit depth : 8 bits
    Scan type : Progressive
    Bits/(Pixel*Frame) : 0.217
    Stream size : 7.72 GiB (92%)
    Default : Yes
    Forced : No
    Color range : Limited
    Color primaries : BT.709
    Transfer characteristics : BT.709
    Matrix coefficients : BT.709

    Audio
    ID : 2
    Format : E-AC-3
    Format/Info : Enhanced AC-3
    Commercial name : Dolby Digital Plus
    Codec ID : A_EAC3
    Duration : 2 h 18 min
    Bit rate mode : Constant
    Bit rate : 640 kb/s
    Channel(s) : 6 channels
    Channel layout : L R C LFE Ls Rs
    Sampling rate : 48.0 kHz
    Frame rate : 31.250 FPS (1536 SPF)
    Compression mode : Lossy
    Stream size : 632 MiB (7%)
    Title : [English-AC-3]
    Language : English
    Service kind : Complete Main
    Default : No
    Forced : No

    Text #1
    ID : 3
    Format : PGS
    Muxing mode : zlib
    Codec ID : S_HDMV/PGS
    Codec ID/Info : Picture based subtitle format used on BDs/HD-DVDs
    Duration : 2 h 16 min
    Bit rate : 48.9 kb/s
    Count of elements : 2966
    Stream size : 47.7 MiB (1%)
    Title : [EucrosiaUPC PGS]
    Language : Thai
    Default : Yes
    Forced : No

    Text #2
    ID : 4
    Format : PGS
    Muxing mode : zlib
    Codec ID : S_HDMV/PGS
    Codec ID/Info : Picture based subtitle format used on BDs/HD-DVDs
    Duration : 2 h 16 min
    Bit rate : 48.8 kb/s
    Count of elements : 2966
    Stream size : 47.6 MiB (1%)
    Title : [TH Sarabun New PGS]
    Language : Thai
    Default : No
    Forced : No

    Text #3
    ID : 5
    Format : UTF-8
    Codec ID : S_TEXT/UTF8
    Codec ID/Info : UTF-8 Plain Text
    Duration : 2 h 16 min
    Bit rate : 122 b/s
    Count of elements : 1483
    Stream size : 122 KiB (0%)
    Title : Thai
    Language : Thai
    Default : No
    Forced : No

    Text #4
    ID : 6
    Format : UTF-8
    Codec ID : S_TEXT/UTF8
    Codec ID/Info : UTF-8 Plain Text
    Duration : 2 h 17 min
    Bit rate : 61 b/s
    Count of elements : 2195
    Stream size : 61.9 KiB (0%)
    Title : English SDH
    Language : English
    Default : No
    Forced : No









    http://www.filecondo.com/dl.php?f=l3e10d1LZhbB

  2. The Following 5 Users Say Thank You to Duckload.us For This Useful Post:

    gaszolineskywalker (07-17-2021), jackjangri (07-02-2021), kappa (07-05-2021), Timarat (07-02-2021), Wesker_TOT (07-20-2021)

  3. #2
    Junior Member
    สมัครเมื่อ
    May 2020
    โพสต์
    7
    Thanks
    0
    Thanked 0 Times in 0 Posts
    ทำไมไม่มี cornfile

  4. #3
    Senior Member
    สมัครเมื่อ
    Jun 2011
    โพสต์
    336
    Thanks
    488
    Thanked 40 Times in 29 Posts
    thank you...

  5. #4
    Senior Member
    สมัครเมื่อ
    Jul 2013
    โพสต์
    2,712
    Thanks
    0
    Thanked 0 Times in 0 Posts
    ขอบคุณครับ

  6. #5
    Senior Member
    สมัครเมื่อ
    Jul 2013
    โพสต์
    2,712
    Thanks
    0
    Thanked 0 Times in 0 Posts
    เห็นแอดแจ้งว่า Server ทางนั้นมีปัญหาอยู่

  7. #6
    Senior Member
    สมัครเมื่อ
    Aug 2012
    โพสต์
    318
    Thanks
    0
    Thanked 0 Times in 0 Posts
    ขอบคุณครับ

  8. #7
    Senior Member
    สมัครเมื่อ
    Oct 2012
    โพสต์
    1,643
    Thanks
    2,572
    Thanked 0 Times in 0 Posts
    ขอบคุณครับ

  9. #8
    Senior Member
    สมัครเมื่อ
    Dec 2013
    โพสต์
    3,182
    Thanks
    5,096
    Thanked 0 Times in 0 Posts
    ขอบคุณครับ...

+ ตอบกลับกระทู้

ข้อมูลกระทู้

Users Browsing this Thread

ในขณะนี้มี 1 ท่านดูกระทู้อยู่. (0 สมาชิกและ 1 ผู้เยี่ยมชม)

     

กฎการโพสต์ข้อความ

  • ท่าน ไม่สามารถ ตั้งกระทู้ใหม่ได้
  • ท่าน ไม่สามารถ ตอบกระทู้ได้
  • ท่าน ไม่สามารถ แนบไฟล์ได้
  • ท่าน ไม่สามารถ แก้ไขข้อความโพสต์ได้
  • BB code สถานะ เปิด
  • Smilies สถานะ เปิด
  • [IMG] สถานะ เปิด
  • HTML สถานะ ปิด