+ ตอบกลับกระทู้
สรุปผลการค้นหา 1 ถึง 4 จากทั้งหมด 4
  1. #1
    Administrators รูปส่วนตัว Duckload.us
    สมัครเมื่อ
    Dec 2010
    โพสต์
    131,537
    Thanks
    7
    Thanked 135,194 Times in 59,796 Posts

    Lightbulb [เกาหลี]-[2021] The 8th Night : คืนที่ 8-WEB-DL.H.264.1080p. [Netflix (web-dl)]-[พากย์ไทย บรรยายไทย]



    With prayer beads in one hand and an ax in the other, a monk hunts down a millennia-old spirit that's possessing humans and unleashing hell on Earth.

    General
    Unique ID : 33457153639218515448489218734766457738 (0x192B9D08186187DBA61A2E992418838A)
    Complete name : [2021] The 8th Night - คืนที่ 8.1080p.NF.WEB-DL.DDP5.1.x264 (CrazyMovie).mkv
    Format : Matroska
    Format version : Version 4
    File size : 6.18 GiB
    Duration : 1 h 56 min
    Overall bit rate mode : Variable
    Overall bit rate : 7 597 kb/s
    Encoded date : UTC 2021-07-02 07:07:43
    Writing application : mkvmerge v57.0.0 ('Till The End') 64-bit
    Writing library : libebml v1.4.2 + libmatroska v1.6.4 / Lavf58.31.104

    Video
    ID : 1
    Format : AVC
    Format/Info : Advanced Video Codec
    Format profile : [email protected]
    Format settings : CABAC / 3 Ref Frames
    Format settings, CABAC : Yes
    Format settings, Reference fra : 3 frames
    Codec ID : V_MPEG4/ISO/AVC
    Duration : 1 h 56 min
    Bit rate mode : Variable
    Bit rate : 3 111 kb/s
    Nominal bit rate : 4 020 kb/s
    Maximum bit rate : 6 030 kb/s
    Width : 1 920 pixels
    Height : 1 080 pixels
    Display aspect ratio : 16:9
    Frame rate mode : Constant
    Frame rate : 23.976 (24000/1001) FPS
    Color space : YUV
    Chroma subsampling : 4:2:0
    Bit depth : 8 bits
    Scan type : Progressive
    Bits/(Pixel*Frame) : 0.063
    Stream size : 2.53 GiB (41%)
    Writing library : x264 core 148 r2722 1b0121b
    Encoding settings : cabac=1 / ref=3 / deblock=1:0:0 / analyse=0x1:0x111 / me=umh / subme=10 / psy=1 / psy_rd=1.00:0.00 / mixed_ref=1 / me_range=24 / chroma_me=1 / trellis=2 / 8x8dct=0 / cqm=0 / deadzone=21,11 / fast_pskip=1 / chroma_qp_offset=-2 / threads=6 / lookahead_threads=1 / sliced_threads=0 / nr=0 / decimate=1 / interlaced=0 / bluray_compat=0 / stitchable=1 / constrained_intra=0 / bframes=2 / b_pyramid=0 / b_adapt=2 / b_bias=0 / direct=3 / weightb=1 / open_gop=0 / weightp=2 / keyint=250 / keyint_min=23 / scenecut=0 / intra_refresh=0 / rc_lookahead=48 / rc=2pass / mbtree=1 / bitrate=4020 / ratetol=1.0 / qcomp=0.50 / qpmin=6 / qpmax=51 / qpstep=4 / cplxblur=20.0 / qblur=0.5 / vbv_maxrate=6030 / vbv_bufsize=8040 / nal_hrd=vbr / filler=0 / ip_ratio=1.40 / aq=1:1.00
    Default : Yes
    Forced : No

    Audio #1
    ID : 2
    Format : E-AC-3
    Format/Info : Enhanced AC-3
    Commercial name : Dolby Digital Plus
    Codec ID : A_EAC3
    Duration : 1 h 56 min
    Bit rate mode : Constant
    Bit rate : 640 kb/s
    Channel(s) : 6 channels
    Channel layout : L R C LFE Ls Rs
    Sampling rate : 48.0 kHz
    Frame rate : 31.250 FPS (1536 SPF)
    Bit depth : 32 bits
    Compression mode : Lossy
    Stream size : 533 MiB (8%)
    Title : Brazilian Portuguese
    Language : Portuguese
    Service kind : Complete Main
    Default : No
    Forced : No

    Audio #2
    ID : 3
    Format : E-AC-3
    Format/Info : Enhanced AC-3
    Commercial name : Dolby Digital Plus
    Codec ID : A_EAC3
    Duration : 1 h 56 min
    Bit rate mode : Constant
    Bit rate : 640 kb/s
    Channel(s) : 6 channels
    Channel layout : L R C LFE Ls Rs
    Sampling rate : 48.0 kHz
    Frame rate : 31.250 FPS (1536 SPF)
    Bit depth : 32 bits
    Compression mode : Lossy
    Stream size : 533 MiB (8%)
    Title : English
    Language : English
    Service kind : Complete Main
    Default : No
    Forced : No

    Audio #3
    ID : 4
    Format : E-AC-3
    Format/Info : Enhanced AC-3
    Commercial name : Dolby Digital Plus
    Codec ID : A_EAC3
    Duration : 1 h 56 min
    Bit rate mode : Constant
    Bit rate : 640 kb/s
    Channel(s) : 6 channels
    Channel layout : L R C LFE Ls Rs
    Sampling rate : 48.0 kHz
    Frame rate : 31.250 FPS (1536 SPF)
    Bit depth : 32 bits
    Compression mode : Lossy
    Stream size : 533 MiB (8%)
    Title : Hindi
    Language : Hindi
    Service kind : Complete Main
    Default : No
    Forced : No

    Audio #4
    ID : 5
    Format : E-AC-3
    Format/Info : Enhanced AC-3
    Commercial name : Dolby Digital Plus
    Codec ID : A_EAC3
    Duration : 1 h 56 min
    Bit rate mode : Constant
    Bit rate : 640 kb/s
    Channel(s) : 6 channels
    Channel layout : L R C LFE Ls Rs
    Sampling rate : 48.0 kHz
    Frame rate : 31.250 FPS (1536 SPF)
    Bit depth : 32 bits
    Compression mode : Lossy
    Stream size : 533 MiB (8%)
    Title : Japanese
    Language : Japanese
    Service kind : Complete Main
    Default : No
    Forced : No

    Audio #5
    ID : 6
    Format : E-AC-3
    Format/Info : Enhanced AC-3
    Commercial name : Dolby Digital Plus
    Codec ID : A_EAC3
    Duration : 1 h 56 min
    Bit rate mode : Constant
    Bit rate : 640 kb/s
    Channel(s) : 6 channels
    Channel layout : L R C LFE Ls Rs
    Sampling rate : 48.0 kHz
    Frame rate : 31.250 FPS (1536 SPF)
    Bit depth : 32 bits
    Compression mode : Lossy
    Stream size : 533 MiB (8%)
    Title : Korean
    Language : Korean
    Service kind : Complete Main
    Default : Yes
    Forced : No

    Audio #6
    ID : 7
    Format : E-AC-3
    Format/Info : Enhanced AC-3
    Commercial name : Dolby Digital Plus
    Codec ID : A_EAC3
    Duration : 1 h 56 min
    Bit rate mode : Constant
    Bit rate : 640 kb/s
    Channel(s) : 6 channels
    Channel layout : L R C LFE Ls Rs
    Sampling rate : 48.0 kHz
    Frame rate : 31.250 FPS (1536 SPF)
    Bit depth : 32 bits
    Compression mode : Lossy
    Stream size : 533 MiB (8%)
    Title : Spanish
    Language : Spanish
    Service kind : Complete Main
    Default : No
    Forced : No

    Audio #7
    ID : 8
    Format : E-AC-3
    Format/Info : Enhanced AC-3
    Commercial name : Dolby Digital Plus
    Codec ID : A_EAC3
    Duration : 1 h 56 min
    Bit rate mode : Constant
    Bit rate : 640 kb/s
    Channel(s) : 6 channels
    Channel layout : L R C LFE Ls Rs
    Sampling rate : 48.0 kHz
    Frame rate : 31.250 FPS (1536 SPF)
    Bit depth : 32 bits
    Compression mode : Lossy
    Stream size : 533 MiB (8%)
    Title : Thai
    Language : Thai
    Service kind : Complete Main
    Default : No
    Forced : No

    Text #1
    ID : 9
    Format : UTF-8
    Codec ID : S_TEXT/UTF8
    Codec ID/Info : UTF-8 Plain Text
    Duration : 1 h 54 min
    Bit rate : 43 b/s
    Count of elements : 802
    Stream size : 36.6 KiB (0%)
    Language : Arabic
    Default : No
    Forced : No

    Text #2
    ID : 10
    Format : UTF-8
    Codec ID : S_TEXT/UTF8
    Codec ID/Info : UTF-8 Plain Text
    Duration : 1 h 54 min
    Bit rate : 31 b/s
    Count of elements : 802
    Stream size : 26.2 KiB (0%)
    Language : Czech
    Default : No
    Forced : No

    Text #3
    ID : 11
    Format : UTF-8
    Codec ID : S_TEXT/UTF8
    Codec ID/Info : UTF-8 Plain Text
    Duration : 1 h 54 min
    Bit rate : 30 b/s
    Count of elements : 801
    Stream size : 25.7 KiB (0%)
    Language : Danish
    Default : No
    Forced : No

    Text #4
    ID : 12
    Format : UTF-8
    Codec ID : S_TEXT/UTF8
    Codec ID/Info : UTF-8 Plain Text
    Duration : 1 h 54 min
    Bit rate : 30 b/s
    Count of elements : 800
    Stream size : 26.0 KiB (0%)
    Language : German
    Default : No
    Forced : No

    Text #5
    ID : 13
    Format : UTF-8
    Codec ID : S_TEXT/UTF8
    Codec ID/Info : UTF-8 Plain Text
    Duration : 1 h 54 min
    Bit rate : 53 b/s
    Count of elements : 802
    Stream size : 44.8 KiB (0%)
    Language : Greek
    Default : No
    Forced : No

    Text #6
    ID : 14
    Format : UTF-8
    Codec ID : S_TEXT/UTF8
    Codec ID/Info : UTF-8 Plain Text
    Duration : 1 h 54 min
    Bit rate : 33 b/s
    Count of elements : 798
    Stream size : 27.8 KiB (0%)
    Language : English
    Default : No
    Forced : No

    Text #7
    ID : 15
    Format : UTF-8
    Codec ID : S_TEXT/UTF8
    Codec ID/Info : UTF-8 Plain Text
    Duration : 1 h 54 min
    Bit rate : 31 b/s
    Count of elements : 808
    Stream size : 26.8 KiB (0%)
    Title : Neutral
    Language : Spanish
    Default : No
    Forced : No

    Text #8
    ID : 16
    Format : UTF-8
    Codec ID : S_TEXT/UTF8
    Codec ID/Info : UTF-8 Plain Text
    Duration : 1 h 54 min
    Bit rate : 31 b/s
    Count of elements : 801
    Stream size : 26.3 KiB (0%)
    Title : Castilian
    Language : Spanish
    Default : No
    Forced : No

    Text #9
    ID : 17
    Format : UTF-8
    Codec ID : S_TEXT/UTF8
    Codec ID/Info : UTF-8 Plain Text
    Duration : 1 h 54 min
    Bit rate : 29 b/s
    Count of elements : 801
    Stream size : 24.4 KiB (0%)
    Language : Finnish
    Default : No
    Forced : No

    Text #10
    ID : 18
    Format : UTF-8
    Codec ID : S_TEXT/UTF8
    Codec ID/Info : UTF-8 Plain Text
    Duration : 1 h 54 min
    Bit rate : 31 b/s
    Count of elements : 801
    Stream size : 26.3 KiB (0%)
    Language : French
    Default : No
    Forced : No

    Text #11
    ID : 19
    Format : UTF-8
    Codec ID : S_TEXT/UTF8
    Codec ID/Info : UTF-8 Plain Text
    Duration : 1 h 54 min
    Bit rate : 40 b/s
    Count of elements : 802
    Stream size : 34.3 KiB (0%)
    Language : Hebrew
    Default : No
    Forced : No

    Text #12
    ID : 20
    Format : UTF-8
    Codec ID : S_TEXT/UTF8
    Codec ID/Info : UTF-8 Plain Text
    Duration : 1 h 54 min
    Bit rate : 29 b/s
    Count of elements : 800
    Stream size : 25.2 KiB (0%)
    Title : Croatian
    Language : Croatian
    Default : No
    Forced : No

    Text #13
    ID : 21
    Format : UTF-8
    Codec ID : S_TEXT/UTF8
    Codec ID/Info : UTF-8 Plain Text
    Duration : 1 h 54 min
    Bit rate : 30 b/s
    Count of elements : 801
    Stream size : 26.0 KiB (0%)
    Language : Hungarian
    Default : No
    Forced : No

    Text #14
    ID : 22
    Format : UTF-8
    Codec ID : S_TEXT/UTF8
    Codec ID/Info : UTF-8 Plain Text
    Duration : 1 h 55 min
    Bit rate : 30 b/s
    Count of elements : 840
    Stream size : 25.6 KiB (0%)
    Language : Indonesian
    Default : No
    Forced : No

    Text #15
    ID : 23
    Format : UTF-8
    Codec ID : S_TEXT/UTF8
    Codec ID/Info : UTF-8 Plain Text
    Duration : 1 h 54 min
    Bit rate : 31 b/s
    Count of elements : 801
    Stream size : 26.7 KiB (0%)
    Language : Italian
    Default : No
    Forced : No

    Text #16
    ID : 24
    Format : UTF-8
    Codec ID : S_TEXT/UTF8
    Codec ID/Info : UTF-8 Plain Text
    Duration : 1 h 55 min
    Bit rate : 29 b/s
    Count of elements : 839
    Stream size : 25.0 KiB (0%)
    Language : Japanese
    Default : No
    Forced : No

    Text #17
    ID : 25
    Format : UTF-8
    Codec ID : S_TEXT/UTF8
    Codec ID/Info : UTF-8 Plain Text
    Duration : 1 h 54 min
    Bit rate : 2 b/s
    Count of elements : 59
    Stream size : 1.79 KiB (0%)
    Title : Forced
    Language : Korean
    Default : Yes
    Forced : Yes

    Text #18
    ID : 26
    Format : UTF-8
    Codec ID : S_TEXT/UTF8
    Codec ID/Info : UTF-8 Plain Text
    Duration : 1 h 51 min
    Bit rate : 44 b/s
    Count of elements : 1106
    Stream size : 36.1 KiB (0%)
    Title : SDH
    Language : Korean
    Default : No
    Forced : No

    Text #19
    ID : 27
    Format : UTF-8
    Codec ID : S_TEXT/UTF8
    Codec ID/Info : UTF-8 Plain Text
    Duration : 1 h 55 min
    Bit rate : 31 b/s
    Count of elements : 846
    Stream size : 26.3 KiB (0%)
    Language : Malay
    Default : No
    Forced : No

    Text #20
    ID : 28
    Format : UTF-8
    Codec ID : S_TEXT/UTF8
    Codec ID/Info : UTF-8 Plain Text
    Duration : 1 h 54 min
    Bit rate : 29 b/s
    Count of elements : 800
    Stream size : 24.7 KiB (0%)
    Title : Bokmå l
    Language : Norwegian
    Default : No
    Forced : No

    Text #21
    ID : 29
    Format : UTF-8
    Codec ID : S_TEXT/UTF8
    Codec ID/Info : UTF-8 Plain Text
    Duration : 1 h 54 min
    Bit rate : 29 b/s
    Count of elements : 798
    Stream size : 24.5 KiB (0%)
    Language : Dutch
    Default : No
    Forced : No

    Text #22
    ID : 30
    Format : UTF-8
    Codec ID : S_TEXT/UTF8
    Codec ID/Info : UTF-8 Plain Text
    Duration : 1 h 54 min
    Bit rate : 27 b/s
    Count of elements : 798
    Stream size : 23.3 KiB (0%)
    Language : Polish
    Default : No
    Forced : No

    Text #23
    ID : 31
    Format : UTF-8
    Codec ID : S_TEXT/UTF8
    Codec ID/Info : UTF-8 Plain Text
    Duration : 1 h 54 min
    Bit rate : 30 b/s
    Count of elements : 801
    Stream size : 26.0 KiB (0%)
    Language : Portuguese
    Default : No
    Forced : No

    Text #24
    ID : 32
    Format : UTF-8
    Codec ID : S_TEXT/UTF8
    Codec ID/Info : UTF-8 Plain Text
    Duration : 1 h 54 min
    Bit rate : 31 b/s
    Count of elements : 801
    Stream size : 26.3 KiB (0%)
    Title : Brazilian
    Language : Portuguese
    Default : No
    Forced : No

    Text #25
    ID : 33
    Format : UTF-8
    Codec ID : S_TEXT/UTF8
    Codec ID/Info : UTF-8 Plain Text
    Duration : 1 h 54 min
    Bit rate : 32 b/s
    Count of elements : 800
    Stream size : 27.1 KiB (0%)
    Language : Romanian
    Default : No
    Forced : No

    Text #26
    ID : 34
    Format : UTF-8
    Codec ID : S_TEXT/UTF8
    Codec ID/Info : UTF-8 Plain Text
    Duration : 1 h 54 min
    Bit rate : 50 b/s
    Count of elements : 802
    Stream size : 42.3 KiB (0%)
    Language : Russian
    Default : No
    Forced : No

    Text #27
    ID : 35
    Format : UTF-8
    Codec ID : S_TEXT/UTF8
    Codec ID/Info : UTF-8 Plain Text
    Duration : 1 h 54 min
    Bit rate : 31 b/s
    Count of elements : 801
    Stream size : 26.4 KiB (0%)
    Language : Swedish
    Default : No
    Forced : No

    Text #28
    ID : 36
    Format : UTF-8
    Codec ID : S_TEXT/UTF8
    Codec ID/Info : UTF-8 Plain Text
    Duration : 1 h 55 min
    Bit rate : 76 b/s
    Count of elements : 855
    Stream size : 64.6 KiB (0%)
    Language : Thai
    Default : No
    Forced : No

    Text #29
    ID : 37
    Format : UTF-8
    Codec ID : S_TEXT/UTF8
    Codec ID/Info : UTF-8 Plain Text
    Duration : 1 h 54 min
    Bit rate : 31 b/s
    Count of elements : 801
    Stream size : 26.8 KiB (0%)
    Language : Turkish
    Default : No
    Forced : No

    Text #30
    ID : 38
    Format : UTF-8
    Codec ID : S_TEXT/UTF8
    Codec ID/Info : UTF-8 Plain Text
    Duration : 1 h 54 min
    Bit rate : 51 b/s
    Count of elements : 802
    Stream size : 43.6 KiB (0%)
    Language : Ukrainian
    Default : No
    Forced : No

    Text #31
    ID : 39
    Format : UTF-8
    Codec ID : S_TEXT/UTF8
    Codec ID/Info : UTF-8 Plain Text
    Duration : 1 h 55 min
    Bit rate : 38 b/s
    Count of elements : 847
    Stream size : 32.6 KiB (0%)
    Language : Vietnamese
    Default : No
    Forced : No

    Text #32
    ID : 40
    Format : UTF-8
    Codec ID : S_TEXT/UTF8
    Codec ID/Info : UTF-8 Plain Text
    Duration : 1 h 55 min
    Bit rate : 28 b/s
    Count of elements : 846
    Stream size : 23.7 KiB (0%)
    Title : Simplified
    Language : Chinese
    Default : No
    Forced : No

    Text #33
    ID : 41
    Format : UTF-8
    Codec ID : S_TEXT/UTF8
    Codec ID/Info : UTF-8 Plain Text
    Duration : 1 h 55 min
    Bit rate : 27 b/s
    Count of elements : 840
    Stream size : 23.1 KiB (0%)
    Title : Traditional
    Language : Chinese
    Default : No
    Forced : No



    http://www.filecondo.com/dl.php?f=X9c0b01M00Zg

  2. The Following 3 Users Say Thank You to Duckload.us For This Useful Post:

    Jodz14 (07-05-2021), sawara (07-27-2021), Wesker_TOT (07-22-2021)

  3. #2
    Senior Member
    สมัครเมื่อ
    Dec 2013
    โพสต์
    3,182
    Thanks
    5,096
    Thanked 0 Times in 0 Posts
    ขอบคุณครับ...

  4. #3
    Senior Member
    สมัครเมื่อ
    Jul 2013
    โพสต์
    2,712
    Thanks
    0
    Thanked 0 Times in 0 Posts
    ขอบคุณครับ

  5. #4
    Senior Member
    สมัครเมื่อ
    Dec 2013
    โพสต์
    494
    Thanks
    430
    Thanked 0 Times in 0 Posts
    ขอบคุณครับบ

+ ตอบกลับกระทู้

ข้อมูลกระทู้

Users Browsing this Thread

ในขณะนี้มี 1 ท่านดูกระทู้อยู่. (0 สมาชิกและ 1 ผู้เยี่ยมชม)

     

กฎการโพสต์ข้อความ

  • ท่าน ไม่สามารถ ตั้งกระทู้ใหม่ได้
  • ท่าน ไม่สามารถ ตอบกระทู้ได้
  • ท่าน ไม่สามารถ แนบไฟล์ได้
  • ท่าน ไม่สามารถ แก้ไขข้อความโพสต์ได้
  • BB code สถานะ เปิด
  • Smilies สถานะ เปิด
  • [IMG] สถานะ เปิด
  • HTML สถานะ ปิด