+ ตอบกลับกระทู้
สรุปผลการค้นหา 1 ถึง 4 จากทั้งหมด 4
  1. #1
    Administrators รูปส่วนตัว Duckload.us
    สมัครเมื่อ
    Dec 2010
    โพสต์
    129,844
    Thanks
    7
    Thanked 133,711 Times in 59,209 Posts

    Lightbulb ฝรั่ง]-Star Wars: The Bad Batch S01E01-12 : สตาร์ วอร์ส: ทีมโคตรโคลนมหากาฬ ปี1ตอน1-12-WEB-DL.H.264.1080p. [rip from Master]-[เสียงอังกฤษ DDP5.1+พากย์ไทย Master+บรรยายไทย]



    สตาร์ วอร์ส: ทีมโคตรโคลนมหากาฬ (อังกฤษ: Star Wars: The Bad Batch) เป็นภาพยนตร์การ์ตูนชุดทางโทรทัศน์แบบแอนิเมชัน 3 มิติ สร้างสรรค์โดย เดฟ ฟิโลนี ออกฉายผ่านบริการสตรีมมิ่งดิสนีย์พลัส ดำเนินเรื่องในจักรวาลสตาร์ วอร์ส เป็นภาคต่อและภาคแยกของซีรีส์ สตาร์ วอร์ส: เดอะ โคลน วอร์ส ผลิตโดย Lucasfilm Animation โดยมี Jennifer Corbett เป็นหัวหน้าทีมผู้เขียนบท และ Brad Rau เป็น supervising director

    Dee Bradley Baker ให้เสียงทหารโคลนหน่วยแบดแบทช์ หน่วยทหารโคลนทรูปเปอร์ที่มีความสามารถพิเศษจากการกล ายพันธุ์ นอกจากนี้ยังให้เสียงทหารโคลนคนอื่นๆ ในเรื่อง เหมือนเช่นที่เคยทำในซีรีส์ เดอะ โคลน วอร์ส อีกด้วย นอกจากนี้ยังมี Michelle Ang ให้เสียงโอเมก้า โคลนเด็กหญิงที่เข้าร่วมหน่วยนี้ ซีรีส์เรื่องนี้ออกฉายครั้งแรกเมื่อ 4 พฤษภาคม ค.ศ. 2021 โดยซีซั่นที่หนึ่งจะมี 16 ตอน

    Format : Matroska
    Format version : Version 4 / Version 2
    File size : 3.39 GiB
    Duration : 1 h 11 min
    Overall bit rate mode : Variable
    Overall bit rate : 6 828 kb/s
    Writing application : mkvmerge v55.0.0 ('Waiting For Space') 64-bit
    Writing library : libebml v1.4.2 + libmatroska v1.6.4

    Video
    ID : 1
    Format : AVC
    Format/Info : Advanced Video Codec
    Format profile : [email protected]
    Format settings, CABAC : Yes
    Format settings, ReFrames : 4 frames
    Codec ID : V_MPEG4/ISO/AVC
    Duration : 1 h 11 min
    Bit rate mode : Variable
    Bit rate : 6 105 kb/s
    Maximum bit rate : 12.7 Mb/s
    Width : 1 920 pixels
    Height : 1 080 pixels
    Display aspect ratio : 16:9
    Frame rate mode : Constant
    Frame rate : 23.976 (24000/1001) FPS
    Color space : YUV
    Chroma subsampling : 4:2:0
    Bit depth : 8 bits
    Scan type : Progressive
    Bits/(Pixel*Frame) : 0.123
    Stream size : 3.03 GiB (89%)
    Default : Yes
    Forced : No
    Color range : Limited
    Color primaries : BT.709
    Transfer characteristics : BT.709
    Matrix coefficients : BT.709

    Audio #1
    ID : 2
    Format : AC-3
    Format/Info : Audio Coding 3
    Mode extension : CM (complete main)
    Format settings, Endianness : Big
    Codec ID : A_AC3
    Duration : 1 h 11 min
    Bit rate mode : Constant
    Bit rate : 448 kb/s
    Channel(s) : 2 channels
    Channel positions : Front: L R
    Sampling rate : 48.0 kHz
    Frame rate : 31.250 FPS (1536 spf)
    Compression mode : Lossy
    Stream size : 228 MiB (7%)
    Language : Thai
    Default : Yes
    Forced : No

    Audio #2
    ID : 3
    Format : E-AC-3
    Format/Info : Audio Coding 3
    Format settings, Endianness : Big
    Codec ID : A_EAC3
    Duration : 1 h 11 min
    Bit rate mode : Constant
    Bit rate : 256 kb/s
    Channel(s) : 6 channels
    Channel positions : Front: L C R, Side: L R, LFE
    Sampling rate : 48.0 kHz
    Frame rate : 187.500 FPS (256 spf)
    Bit depth : 32 bits
    Compression mode : Lossy
    Stream size : 130 MiB (4%)
    Title : English
    Language : English
    Default : No
    Forced : No

    Text #1
    ID : 4
    Format : PGS
    Muxing mode : zlib
    Codec ID : S_HDMV/PGS
    Codec ID/Info : Picture based subtitle format used on BDs/HD-DVDs
    Duration : 1 h 10 min
    Bit rate : 35.0 kb/s
    Count of elements : 1674
    Stream size : 17.6 MiB (1%)
    Language : Thai
    Default : Yes
    Forced : Yes

    Text #2
    ID : 5
    Format : UTF-8
    Codec ID : S_TEXT/UTF8
    Codec ID/Info : UTF-8 Plain Text
    Duration : 1 h 10 min
    Bit rate : 122 b/s
    Count of elements : 837
    Stream size : 63.0 KiB (0%)
    Language : Thai
    Default : No
    Forced : No

    Text #3
    ID : 6
    Format : UTF-8
    Codec ID : S_TEXT/UTF8
    Codec ID/Info : UTF-8 Plain Text
    Duration : 1 h 9 min
    Bit rate : 55 b/s
    Count of elements : 893
    Stream size : 28.4 KiB (0%)
    Title : English [CC]
    Language : English
    Default : No
    Forced : No





    01 http://www.filecondo.com/dl.php?f=1921421M562Y
    02 http://www.filecondo.com/dl.php?f=D92e6a1M563P
    03 http://www.filecondo.com/dl.php?f=M5dbb31M564D
    04 http://www.filecondo.com/dl.php?f=K023c71M565A
    05 http://www.filecondo.com/dl.php?f=Ib59751M567o
    06 http://www.filecondo.com/dl.php?f=Udd78a1M568t
    07 http://www.filecondo.com/dl.php?f=6d1ae31M569B
    08 http://www.filecondo.com/dl.php?f=a4afe21M56bQ
    09 http://www.filecondo.com/dl.php?f=E02ace1M56cy
    10 http://www.filecondo.com/dl.php?f=Acf9f61M56dn
    11 http://www.filecondo.com/dl.php?f=S44b701M56eh
    12 http://www.filecondo.com/dl.php?f=Yf54d61M56ff

  2. The Following 3 Users Say Thank You to Duckload.us For This Useful Post:

    jackjangri (07-20-2021), Wesker_TOT (07-19-2021), zhad01 (07-19-2021)

  3. #2
    Senior Member
    สมัครเมื่อ
    Jul 2013
    โพสต์
    2,517
    Thanks
    0
    Thanked 0 Times in 0 Posts
    ขอบคุณครับ

  4. #3
    Senior Member
    สมัครเมื่อ
    Dec 2013
    โพสต์
    3,161
    Thanks
    5,077
    Thanked 0 Times in 0 Posts
    ขอบคุณครับ...

  5. #4
    Senior Member
    สมัครเมื่อ
    Jun 2011
    โพสต์
    262
    Thanks
    415
    Thanked 40 Times in 29 Posts
    ขอบคุณครับ

+ ตอบกลับกระทู้

ข้อมูลกระทู้

Users Browsing this Thread

ในขณะนี้มี 1 ท่านดูกระทู้อยู่. (0 สมาชิกและ 1 ผู้เยี่ยมชม)

     

กฎการโพสต์ข้อความ

  • ท่าน ไม่สามารถ ตั้งกระทู้ใหม่ได้
  • ท่าน ไม่สามารถ ตอบกระทู้ได้
  • ท่าน ไม่สามารถ แนบไฟล์ได้
  • ท่าน ไม่สามารถ แก้ไขข้อความโพสต์ได้
  • BB code สถานะ เปิด
  • Smilies สถานะ เปิด
  • [IMG] สถานะ เปิด
  • HTML สถานะ ปิด