+ ตอบกลับกระทู้
สรุปผลการค้นหา 1 ถึง 2 จากทั้งหมด 2
  1. #1
    Administrators รูปส่วนตัว Duckload.us
    สมัครเมื่อ
    Dec 2010
    โพสต์
    129,844
    Thanks
    7
    Thanked 133,711 Times in 59,209 Posts

    Lightbulb [ฝรั่ง]-(.2160p.BluRay.x265.10bit)++The Cobbler : มหัศจรรย์รองเท้าซ่อมรัก (2014)++[เสียงอังกฤษDTS.5.1+เสียงไทยมาสเตอร์ : บรรยายไทยPGSคมชัด+อังกฤษSRT]-Encode.H.265.2160p. [Modified]-[พากย์ไทย บรรยายไทย]



    The Cobbler บอกเล่าชีวิตของ Max Simkin (แม็กซ์ ซิมคิน) ช่างซ่อมรองเท้าประจำร้านของครอบครัวในนิวยอร์ก ซึ่งเขาคิดอยู่เสมอว่าชีวิตในแต่ละวันนั้นสุดแสนจะน่ าเบื่อและจำเจ แต่แล้ววันหนึ่งความคิดของเขาก็เปลี่ยนไปเมื่อได้พบว ่า ครอบครัวของตนสืบทอดเวทย์มนต์บางอย่างที่ทำให้สามารถ เข้าไปอยู่ในชีวิตของ ลูกค้าคนไหนก็ได้ โดยความมหัศจรรย์ข้อนี้ทำให้เขาได้เห็นโลกในมุมมองให ม่ และค้นพบว่านี่หนทางเดียวที่จะรู้ว่าคน ๆ นั้นมีนิสัยใจคออย่างไรกันแน่

    Code:
    Format                                   : Matroska
    Format version                           : Version 4
    File size                                : 28.0 GiB
    Duration                                 : 1 h 38 min
    Overall bit rate                         : 40.9 Mb/s
    Movie name                               : The.Cobbler.2014.1080p.BluRay.x264-GECKOS
    Encoded date                             : UTC 2021-07-19 05:20:58
    Writing application                      : mkvmerge v55.0.0 ('Waiting For Space') 64-bit
    Writing library                          : libebml v1.4.2 + libmatroska v1.6.4
    
    Video
    ID                                       : 1
    Format                                   : HEVC
    Format/Info                              : High Efficiency Video Coding
    Format profile                           : Main [email protected]@High
    Codec ID                                 : V_MPEGH/ISO/HEVC
    Duration                                 : 1 h 38 min
    Bit rate                                 : 38.3 Mb/s
    Width                                    : 3 840 pixels
    Height                                   : 2 080 pixels
    Display aspect ratio                     : 1.85:1
    Frame rate mode                          : Constant
    Frame rate                               : 23.976 (24000/1001) FPS
    Color space                              : YUV
    Chroma subsampling                       : 4:2:0
    Bit depth                                : 10 bits
    Bits/(Pixel*Frame)                       : 0.200
    Stream size                              : 26.2 GiB (94%)
    Default                                  : Yes
    Forced                                   : No
    Color range                              : Limited
    Color primaries                          : BT.709
    Transfer characteristics                 : BT.709
    Matrix coefficients                      : BT.709
    
    Audio #1
    ID                                       : 2
    Format                                   : DTS
    Format/Info                              : Digital Theater Systems
    Codec ID                                 : A_DTS
    Duration                                 : 1 h 38 min
    Bit rate mode                            : Constant
    Bit rate                                 : 1 509 kb/s
    Channel(s)                               : 6 channels
    Channel layout                           : C L R Ls Rs LFE
    Sampling rate                            : 48.0 kHz
    Frame rate                               : 93.750 FPS (512 SPF)
    Bit depth                                : 24 bits
    Compression mode                         : Lossy
    Stream size                              : 1.03 GiB (4%)
    Language                                 : English
    Default                                  : Yes
    Forced                                   : No
    
    Audio #2
    ID                                       : 3
    Format                                   : E-AC-3
    Format/Info                              : Enhanced AC-3
    Commercial name                          : Dolby Digital Plus
    Codec ID                                 : A_EAC3
    Duration                                 : 1 h 38 min
    Bit rate mode                            : Constant
    Bit rate                                 : 384 kb/s
    Channel(s)                               : 2 channels
    Channel layout                           : L R
    Sampling rate                            : 48.0 kHz
    Frame rate                               : 31.250 FPS (1536 SPF)
    Compression mode                         : Lossy
    Stream size                              : 269 MiB (1%)
    Language                                 : Thai
    Service kind                             : Complete Main
    Default                                  : No
    Forced                                   : No
    
    Audio #3
    ID                                       : 4
    Format                                   : E-AC-3
    Format/Info                              : Enhanced AC-3
    Commercial name                          : Dolby Digital Plus
    Codec ID                                 : A_EAC3
    Duration                                 : 1 h 38 min
    Bit rate mode                            : Constant
    Bit rate                                 : 640 kb/s
    Channel(s)                               : 6 channels
    Channel layout                           : L R C LFE Ls Rs
    Sampling rate                            : 48.0 kHz
    Frame rate                               : 31.250 FPS (1536 SPF)
    Compression mode                         : Lossy
    Stream size                              : 449 MiB (2%)
    Language                                 : English
    Service kind                             : Complete Main
    Default                                  : No
    Forced                                   : No
    
    Text #1
    ID                                       : 5
    Format                                   : PGS
    Muxing mode                              : zlib
    Codec ID                                 : S_HDMV/PGS
    Codec ID/Info                            : Picture based subtitle format used on BDs/HD-DVDs
    Duration                                 : 1 h 32 min
    Bit rate                                 : 38.0 kb/s
    Count of elements                        : 2296
    Stream size                              : 25.0 MiB (0%)
    Title                                    : Tahoma
    Language                                 : Thai
    Default                                  : Yes
    Forced                                   : No
    
    Text #2
    ID                                       : 6
    Format                                   : PGS
    Muxing mode                              : zlib
    Codec ID                                 : S_HDMV/PGS
    Codec ID/Info                            : Picture based subtitle format used on BDs/HD-DVDs
    Duration                                 : 1 h 32 min
    Bit rate                                 : 42.0 kb/s
    Count of elements                        : 2296
    Stream size                              : 27.7 MiB (0%)
    Title                                    : Angsana UPC
    Language                                 : Thai
    Default                                  : No
    Forced                                   : No
    
    Text #3
    ID                                       : 7
    Format                                   : VobSub
    Muxing mode                              : zlib
    Codec ID                                 : S_VOBSUB
    Codec ID/Info                            : Picture based subtitle format used on DVDs
    Duration                                 : 1 h 32 min
    Bit rate                                 : 7 889 b/s
    Count of elements                        : 1148
    Stream size                              : 5.19 MiB (0%)
    Title                                    : Tahoma
    Language                                 : Thai
    Default                                  : No
    Forced                                   : No
    
    Text #4
    ID                                       : 8
    Format                                   : VobSub
    Muxing mode                              : zlib
    Codec ID                                 : S_VOBSUB
    Codec ID/Info                            : Picture based subtitle format used on DVDs
    Duration                                 : 1 h 32 min
    Bit rate                                 : 9 225 b/s
    Count of elements                        : 1148
    Stream size                              : 6.07 MiB (0%)
    Title                                    : Angsana UPC
    Language                                 : Thai
    Default                                  : No
    Forced                                   : No
    
    Text #5
    ID                                       : 9
    Format                                   : UTF-8
    Codec ID                                 : S_TEXT/UTF8
    Codec ID/Info                            : UTF-8 Plain Text
    Duration                                 : 1 h 30 min
    Bit rate                                 : 48 b/s
    Count of elements                        : 1120
    Stream size                              : 32.1 KiB (0%)
    Language                                 : English
    Default                                  : No
    Forced                                   : No



    http://www.filecondo.com/dl.php?f=D04ecb1M5Sav

  2. #2
    Senior Member
    สมัครเมื่อ
    Jul 2013
    โพสต์
    2,517
    Thanks
    0
    Thanked 0 Times in 0 Posts
    ขอบคุณครับ

+ ตอบกลับกระทู้

ข้อมูลกระทู้

Users Browsing this Thread

ในขณะนี้มี 1 ท่านดูกระทู้อยู่. (0 สมาชิกและ 1 ผู้เยี่ยมชม)

     

กฎการโพสต์ข้อความ

  • ท่าน ไม่สามารถ ตั้งกระทู้ใหม่ได้
  • ท่าน ไม่สามารถ ตอบกระทู้ได้
  • ท่าน ไม่สามารถ แนบไฟล์ได้
  • ท่าน ไม่สามารถ แก้ไขข้อความโพสต์ได้
  • BB code สถานะ เปิด
  • Smilies สถานะ เปิด
  • [IMG] สถานะ เปิด
  • HTML สถานะ ปิด