+ ตอบกลับกระทู้
สรุปผลการค้นหา 1 ถึง 3 จากทั้งหมด 3
  1. #1
    Administrators รูปส่วนตัว Duckload.us
    สมัครเมื่อ
    Dec 2010
    โพสต์
    131,542
    Thanks
    7
    Thanked 135,194 Times in 59,796 Posts

    Lightbulb [ญี่ปุ่น] • [* BDRM Remux Full Bitrate *] [18+] • Dragon Ball The Path to Power (1996) ดราก้อนบอล เดอะ มูฟวี่ วิถีแห่งเจ้ายุทธภพ [เสียงไทย AC-3 + ญี่ปุ่น AC-3] [บรรยายไทย + อังกฤษ + Srt,PGS คมชัด]


    wrote:
    เรื่องย่อ

    *คำเตือน* ภาคพิเศษเป็นการหยิบเอาเนื้อเรื่องฉากสำคัญมีทั้ง มุกตลก ฉาก 18+ ฉากซึ้งๆ ที่คนใจแข็งดูแล้วอาจน้ำตาซึมได้ ถือว่าเป็นภาคพิเศษที่ครบรสและดีที่สุด

    เนื้อเรื่องเป็นการสรุปเรื่องราวทั้งหมดของดราก้อนบอ ล (ตอนเด็ก) เนื้อเรื่องเริ่มตั้งแต่ การใช้ชีวิตของโกคู (โงกุน) ก่อนพบบลูม่า และจบลงที่การล่มสลายของกองทัพเรดริบบ้อน (10th Anniversary Movie)



    wrote:
    คะแนนจากคุณผู้ชมและรายละเอียดต่างๆ




    wrote:
    ภาพตัวอย่าง SS














    Code:
    Format                         : Matroska
    Format version                 : Version 4
    File size                      : 11.5 GiB
    Duration                       : 1 h 19 min
    Overall bit rate               : 20.5 Mb/s
    Encoded date                   : UTC 2021-06-04 06:42:23
    Writing application            : mkvmerge v52.0.0 ('Secret For The Mad') 64-bit
    Writing library                : libebml v1.4.1 + libmatroska v1.6.2
    
    Video
    ID                             : 1
    Format                         : AVC
    Format/Info                    : Advanced Video Codec
    Format profile                 : [email protected]
    Format settings                : CABAC / 4 Ref Frames
    Format settings, CABAC         : Yes
    Format settings, Reference fra : 4 frames
    Codec ID                       : V_MPEG4/ISO/AVC
    Duration                       : 1 h 19 min
    Bit rate mode                  : Constant
    Bit rate                       : 20.0 Mb/s
    Width                          : 1 920 pixels
    Height                         : 1 080 pixels
    Display aspect ratio           : 16:9
    Frame rate mode                : Constant
    Frame rate                     : 23.976 (24000/1001) FPS
    Standard                       : NTSC
    Color space                    : YUV
    Chroma subsampling             : 4:2:0
    Bit depth                      : 8 bits
    Scan type                      : Progressive
    Bits/(Pixel*Frame)             : 0.402
    Stream size                    : 10.9 GiB (95%)
    Default                        : Yes
    Forced                         : No
    Color range                    : Limited
    Color primaries                : BT.709
    Transfer characteristics       : BT.709
    Matrix coefficients            : BT.709
    
    Audio #1
    ID                             : 2
    Format                         : AC-3
    Format/Info                    : Audio Coding 3
    Commercial name                : Dolby Digital
    Codec ID                       : A_AC3
    Duration                       : 1 h 19 min
    Bit rate mode                  : Constant
    Bit rate                       : 448 kb/s
    Channel(s)                     : 2 channels
    Channel layout                 : L R
    Sampling rate                  : 48.0 kHz
    Frame rate                     : 31.250 FPS (1536 SPF)
    Compression mode               : Lossy
    Delay relative to video        : 14 s 980 ms
    Stream size                    : 255 MiB (2%)
    Title                          : Thai AC-3
    Language                       : Thai
    Service kind                   : Complete Main
    Default                        : Yes
    Forced                         : No
    
    Audio #2
    ID                             : 3
    Format                         : AC-3
    Format/Info                    : Audio Coding 3
    Commercial name                : Dolby Digital
    Codec ID                       : A_AC3
    Duration                       : 1 h 19 min
    Bit rate mode                  : Constant
    Bit rate                       : 448 kb/s
    Channel(s)                     : 2 channels
    Channel layout                 : L R
    Sampling rate                  : 48.0 kHz
    Frame rate                     : 31.250 FPS (1536 SPF)
    Compression mode               : Lossy
    Delay relative to video        : 14 s 980 ms
    Stream size                    : 255 MiB (2%)
    Title                          : Japanese AC-3
    Language                       : Japanese
    Service kind                   : Complete Main
    Default                        : No
    Forced                         : No
    
    Text #1
    ID                             : 4
    Format                         : PGS
    Muxing mode                    : zlib
    Codec ID                       : S_HDMV/PGS
    Codec ID/Info                  : Picture based subtitle format used on BDs/HD-DVDs
    Duration                       : 1 h 19 min
    Bit rate                       : 32.5 kb/s
    Count of elements              : 1452
    Stream size                    : 18.4 MiB (0%)
    Title                          : Thai PGS
    Language                       : Thai
    Default                        : Yes
    Forced                         : No
    
    Text #2
    ID                             : 5
    Format                         : PGS
    Muxing mode                    : zlib
    Codec ID                       : S_HDMV/PGS
    Codec ID/Info                  : Picture based subtitle format used on BDs/HD-DVDs
    Duration                       : 1 h 19 min
    Bit rate                       : 32.5 kb/s
    Count of elements              : 1452
    Stream size                    : 18.4 MiB (0%)
    Title                          : Thai PGS Low
    Language                       : Thai
    Default                        : No
    Forced                         : No
    
    Text #3
    ID                             : 6
    Format                         : UTF-8
    Codec ID                       : S_TEXT/UTF8
    Codec ID/Info                  : UTF-8 Plain Text
    Duration                       : 1 h 19 min
    Bit rate                       : 89 b/s
    Count of elements              : 726
    Stream size                    : 51.8 KiB (0%)
    Title                          : Thai SRT
    Language                       : Thai
    Default                        : No
    Forced                         : No
    
    Text #4
    ID                             : 7
    Format                         : PGS
    Muxing mode                    : zlib
    Codec ID                       : S_HDMV/PGS
    Codec ID/Info                  : Picture based subtitle format used on BDs/HD-DVDs
    Duration                       : 1 h 19 min
    Bit rate                       : 26.0 kb/s
    Count of elements              : 1464
    Stream size                    : 14.8 MiB (0%)
    Title                          : Eng PGS
    Language                       : English
    Default                        : No
    Forced                         : No
    
    Text #5
    ID                             : 8
    Format                         : PGS
    Muxing mode                    : zlib
    Codec ID                       : S_HDMV/PGS
    Codec ID/Info                  : Picture based subtitle format used on BDs/HD-DVDs
    Duration                       : 1 h 19 min
    Bit rate                       : 26.0 kb/s
    Count of elements              : 1464
    Stream size                    : 14.8 MiB (0%)
    Title                          : Eng PGS Low
    Language                       : English
    Default                        : No
    Forced                         : No
    
    Text #6
    ID                             : 9
    Format                         : UTF-8
    Codec ID                       : S_TEXT/UTF8
    Codec ID/Info                  : UTF-8 Plain Text
    Duration                       : 1 h 19 min
    Bit rate                       : 35 b/s
    Count of elements              : 732
    Stream size                    : 20.5 KiB (0%)
    Title                          : Eng SRT
    Language                       : English
    Default                        : No
    Forced                         : No
    http://www.filecondo.com/dl.php?f=o41b4f1LQfIX

  2. The Following User Says Thank You to Duckload.us For This Useful Post:

    Wesker_TOT (07-22-2021)

  3. #2
    Senior Member
    สมัครเมื่อ
    Dec 2013
    โพสต์
    3,182
    Thanks
    5,096
    Thanked 0 Times in 0 Posts
    ขอบคุณครับ...

  4. #3
    Senior Member
    สมัครเมื่อ
    Jul 2012
    โพสต์
    7,685
    Thanks
    0
    Thanked 0 Times in 0 Posts
    ขอบคุณมากจ้า

+ ตอบกลับกระทู้

ข้อมูลกระทู้

Users Browsing this Thread

ในขณะนี้มี 1 ท่านดูกระทู้อยู่. (0 สมาชิกและ 1 ผู้เยี่ยมชม)

     

กฎการโพสต์ข้อความ

  • ท่าน ไม่สามารถ ตั้งกระทู้ใหม่ได้
  • ท่าน ไม่สามารถ ตอบกระทู้ได้
  • ท่าน ไม่สามารถ แนบไฟล์ได้
  • ท่าน ไม่สามารถ แก้ไขข้อความโพสต์ได้
  • BB code สถานะ เปิด
  • Smilies สถานะ เปิด
  • [IMG] สถานะ เปิด
  • HTML สถานะ ปิด