+ ตอบกลับกระทู้
สรุปผลการค้นหา 1 ถึง 2 จากทั้งหมด 2
  1. #1
    Administrators รูปส่วนตัว Duckload.us
    สมัครเมื่อ
    Dec 2010
    โพสต์
    139,860
    Thanks
    7
    Thanked 146,371 Times in 63,686 Posts

    Lightbulb [เกาหลี]-[2017] Forgotten : ความทรงจำพิศวง-WEB-DL.H.264.1080p. [Netflix (web-dl)]-[Soundtrack บรรยายไทย]



    Jin-Seok (Kang Ha-Neul) moves into a new home with his older brother Yoo-Seok (Kim Moo-Yul), mother (Na Young-Hee) and father (Moon Sung-Geun). Jin-Seok suffers from hypersensitivity, but with medication he is able to live normally. One rainy evening, Jin-Seok sees his older brother being thrown into a van by a group of men. After 19 days of silence, Yoo-Seok returns home, but he doesn't remember anything from his disappearance. Jin-Seok though notices enough changes in his older brother's personality and behavior that he begins to suspect that the person who has returned is not Yoo-Seok. Meanwhile, Jin-Seok keeps hearing sounds from a locked room temporarily storing the previous home owner's belongings.

    General
    Unique ID : 198582642672337006478214643827087189946 (0x9565A03427A6BCD5B324D0C4A03B27BA)
    Complete name : D:[2017] Forgotten - ความทรงจำพิศวง.1080p.NF.WEB-DL.x264.DDP5.1-(CrazyMovie).mkv
    Format : Matroska
    Format version : Version 4 / Version 2
    File size : 5.31 GiB
    Duration : 1 h 48 min
    Overall bit rate mode : Variable
    Overall bit rate : 6 992 kb/s
    Encoded date : UTC 2021-07-20 12:26:43
    Writing application : mkvmerge v8.1.0 ('Psychedelic Postcard') 32bit
    Writing library : libebml v1.3.1 + libmatroska v1.4.2
    Cover : Yes
    Attachments : cover.jpg

    Video
    ID : 1
    Format : AVC
    Format/Info : Advanced Video Codec
    Format profile : [email protected]
    Format settings : CABAC / 4 Ref Frames
    Format settings, CABAC : Yes
    Format settings, ReFrames : 4 frames
    Codec ID : V_MPEG4/ISO/AVC
    Duration : 1 h 48 min
    Bit rate mode : Variable
    Bit rate : 6 349 kb/s
    Maximum bit rate : 20.0 Mb/s
    Width : 1 920 pixels
    Height : 1 080 pixels
    Display aspect ratio : 16:9
    Frame rate mode : Constant
    Frame rate : 23.976 (24000/1001) FPS
    Color space : YUV
    Chroma subsampling : 4:2:0
    Bit depth : 8 bits
    Scan type : Progressive
    Bits/(Pixel*Frame) : 0.128
    Stream size : 4.82 GiB (91%)
    Title : [2017] Forgotten - ความทรงจำพิศวง.1080p.NF.WEB-DL.x264.DDP5.1-(CrazyMovie)
    Writing library : x264 core 148 r2715 7e75228
    Encoding settings : cabac=1 / ref=4 / deblock=1:0:0 / analyse=0x3:0x111 / me=umh / subme=10 / psy=1 / psy_rd=1.00:0.00 / mixed_ref=1 / me_range=120 / chroma_me=1 / trellis=2 / 8x8dct=1 / cqm=0 / deadzone=21,11 / fast_pskip=1 / chroma_qp_offset=-2 / threads=6 / lookahead_threads=1 / sliced_threads=0 / nr=0 / decimate=1 / interlaced=0 / bluray_compat=0 / stitchable=1 / constrained_intra=0 / bframes=16 / b_pyramid=2 / b_adapt=2 / b_bias=0 / direct=3 / weightb=1 / open_gop=0 / weightp=2 / keyint=240 / keyint_min=121 / scenecut=0 / intra_refresh=0 / rc_lookahead=240 / rc=crf / mbtree=1 / crf=16.0 / qcomp=0.50 / qpmin=6 / qpmax=51 / qpstep=4 / vbv_maxrate=20000 / vbv_bufsize=25000 / crf_max=0.0 / nal_hrd=vbr / filler=0 / ip_ratio=1.40 / aq=1:0.80
    Language : Korean
    Default : Yes
    Forced : No

    Audio
    ID : 2
    Format : E-AC-3
    Format/Info : Enhanced Audio Coding 3
    Codec ID : A_EAC3
    Duration : 1 h 48 min
    Bit rate mode : Constant
    Bit rate : 640 kb/s
    Channel(s) : 6 channels
    Channel positions : Front: L C R, Side: L R, LFE
    Sampling rate : 48.0 kHz
    Frame rate : 187.500 FPS (256 SPF)
    Compression mode : Lossy
    Stream size : 498 MiB (9%)
    Title : Korean
    Language : Korean
    Service kind : Complete Main
    Default : Yes
    Forced : No

    Text #1
    ID : 3
    Format : UTF-8
    Codec ID : S_TEXT/UTF8
    Codec ID/Info : UTF-8 Plain Text
    Duration : 1 h 47 min
    Bit rate : 79 b/s
    Count of elements : 1022
    Stream size : 62.9 KiB (0%)
    Title : Thai
    Language : Thai
    Default : Yes
    Forced : No

    Text #2
    ID : 4
    Format : UTF-8
    Codec ID : S_TEXT/UTF8
    Codec ID/Info : UTF-8 Plain Text
    Duration : 1 h 47 min
    Bit rate : 34 b/s
    Count of elements : 1026
    Stream size : 27.0 KiB (0%)
    Title : Chinese Simplified
    Language : Chinese
    Default : No
    Forced : No

    Text #3
    ID : 5
    Format : UTF-8
    Codec ID : S_TEXT/UTF8
    Codec ID/Info : UTF-8 Plain Text
    Duration : 1 h 47 min
    Bit rate : 34 b/s
    Count of elements : 1027
    Stream size : 27.5 KiB (0%)
    Title : Chinese Traditional
    Language : Chinese
    Default : No
    Forced : No

    Text #4
    ID : 6
    Format : UTF-8
    Codec ID : S_TEXT/UTF8
    Codec ID/Info : UTF-8 Plain Text
    Duration : 1 h 47 min
    Bit rate : 56 b/s
    Count of elements : 1028
    Stream size : 44.3 KiB (0%)
    Language : Arabic
    Default : No
    Forced : No

    Text #5
    ID : 7
    Format : UTF-8
    Codec ID : S_TEXT/UTF8
    Codec ID/Info : UTF-8 Plain Text
    Duration : 1 h 47 min
    Bit rate : 40 b/s
    Count of elements : 1026
    Stream size : 31.6 KiB (0%)
    Language : Danish
    Default : No
    Forced : No

    Text #6
    ID : 8
    Format : UTF-8
    Codec ID : S_TEXT/UTF8
    Codec ID/Info : UTF-8 Plain Text
    Duration : 1 h 47 min
    Bit rate : 39 b/s
    Count of elements : 1025
    Stream size : 31.6 KiB (0%)
    Language : German
    Default : No
    Forced : No

    Text #7
    ID : 9
    Format : UTF-8
    Codec ID : S_TEXT/UTF8
    Codec ID/Info : UTF-8 Plain Text
    Duration : 1 h 47 min
    Bit rate : 62 b/s
    Count of elements : 1027
    Stream size : 49.1 KiB (0%)
    Language : Greek
    Default : No
    Forced : No

    Text #8
    ID : 10
    Format : UTF-8
    Codec ID : S_TEXT/UTF8
    Codec ID/Info : UTF-8 Plain Text
    Duration : 1 h 47 min
    Bit rate : 41 b/s
    Count of elements : 1020
    Stream size : 32.5 KiB (0%)
    Language : English
    Default : No
    Forced : No

    Text #9
    ID : 11
    Format : UTF-8
    Codec ID : S_TEXT/UTF8
    Codec ID/Info : UTF-8 Plain Text
    Duration : 1 h 47 min
    Bit rate : 39 b/s
    Count of elements : 1026
    Stream size : 31.4 KiB (0%)
    Language : Spanish
    Default : No
    Forced : No

    Text #10
    ID : 12
    Format : UTF-8
    Codec ID : S_TEXT/UTF8
    Codec ID/Info : UTF-8 Plain Text
    Duration : 1 h 47 min
    Bit rate : 38 b/s
    Count of elements : 1025
    Stream size : 30.5 KiB (0%)
    Language : Spanish
    Default : No
    Forced : No

    Text #11
    ID : 13
    Format : UTF-8
    Codec ID : S_TEXT/UTF8
    Codec ID/Info : UTF-8 Plain Text
    Duration : 1 h 47 min
    Bit rate : 38 b/s
    Count of elements : 1026
    Stream size : 30.7 KiB (0%)
    Language : Finnish
    Default : No
    Forced : No

    Text #12
    ID : 14
    Format : UTF-8
    Codec ID : S_TEXT/UTF8
    Codec ID/Info : UTF-8 Plain Text
    Duration : 1 h 47 min
    Bit rate : 40 b/s
    Count of elements : 1025
    Stream size : 32.2 KiB (0%)
    Language : French
    Default : No
    Forced : No

    Text #13
    ID : 15
    Format : UTF-8
    Codec ID : S_TEXT/UTF8
    Codec ID/Info : UTF-8 Plain Text
    Duration : 1 h 47 min
    Bit rate : 51 b/s
    Count of elements : 1028
    Stream size : 40.8 KiB (0%)
    Language : Hebrew
    Default : No
    Forced : No

    Text #14
    ID : 16
    Format : UTF-8
    Codec ID : S_TEXT/UTF8
    Codec ID/Info : UTF-8 Plain Text
    Duration : 1 h 47 min
    Bit rate : 37 b/s
    Count of elements : 1020
    Stream size : 29.7 KiB (0%)
    Language : Italian
    Default : No
    Forced : No

    Text #15
    ID : 17
    Format : UTF-8
    Codec ID : S_TEXT/UTF8
    Codec ID/Info : UTF-8 Plain Text
    Duration : 1 h 43 min
    Bit rate : 32 b/s
    Count of elements : 936
    Stream size : 24.3 KiB (0%)
    Language : Japanese
    Default : No
    Forced : No

    Text #16
    ID : 18
    Format : UTF-8
    Codec ID : S_TEXT/UTF8
    Codec ID/Info : UTF-8 Plain Text
    Duration : 1 h 47 min
    Bit rate : 36 b/s
    Count of elements : 1026
    Stream size : 29.0 KiB (0%)
    Language : Norwegian Bokmal
    Default : No
    Forced : No

    Text #17
    ID : 19
    Format : UTF-8
    Codec ID : S_TEXT/UTF8
    Codec ID/Info : UTF-8 Plain Text
    Duration : 1 h 47 min
    Bit rate : 34 b/s
    Count of elements : 1025
    Stream size : 27.5 KiB (0%)
    Language : Dutch
    Default : No
    Forced : No

    Text #18
    ID : 20
    Format : UTF-8
    Codec ID : S_TEXT/UTF8
    Codec ID/Info : UTF-8 Plain Text
    Duration : 1 h 47 min
    Bit rate : 37 b/s
    Count of elements : 1025
    Stream size : 29.6 KiB (0%)
    Language : Polish
    Default : No
    Forced : No

    Text #19
    ID : 21
    Format : UTF-8
    Codec ID : S_TEXT/UTF8
    Codec ID/Info : UTF-8 Plain Text
    Duration : 1 h 47 min
    Bit rate : 38 b/s
    Count of elements : 1023
    Stream size : 30.1 KiB (0%)
    Language : Portuguese
    Default : No
    Forced : No

    Text #20
    ID : 22
    Format : UTF-8
    Codec ID : S_TEXT/UTF8
    Codec ID/Info : UTF-8 Plain Text
    Duration : 1 h 47 min
    Bit rate : 37 b/s
    Count of elements : 1016
    Stream size : 29.4 KiB (0%)
    Language : Portuguese
    Default : No
    Forced : No

    Text #21
    ID : 23
    Format : UTF-8
    Codec ID : S_TEXT/UTF8
    Codec ID/Info : UTF-8 Plain Text
    Duration : 1 h 47 min
    Bit rate : 39 b/s
    Count of elements : 1026
    Stream size : 30.9 KiB (0%)
    Language : Romanian
    Default : No
    Forced : No

    Text #22
    ID : 24
    Format : UTF-8
    Codec ID : S_TEXT/UTF8
    Codec ID/Info : UTF-8 Plain Text
    Duration : 1 h 47 min
    Bit rate : 38 b/s
    Count of elements : 1023
    Stream size : 30.8 KiB (0%)
    Language : Swedish
    Default : No
    Forced : No

    Text #23
    ID : 25
    Format : UTF-8
    Codec ID : S_TEXT/UTF8
    Codec ID/Info : UTF-8 Plain Text
    Duration : 1 h 47 min
    Bit rate : 37 b/s
    Count of elements : 1026
    Stream size : 29.6 KiB (0%)
    Language : Turkish
    Default : No
    Forced : No

    Text #24
    ID : 26
    Format : UTF-8
    Codec ID : S_TEXT/UTF8
    Codec ID/Info : UTF-8 Plain Text
    Duration : 1 h 47 min
    Bit rate : 50 b/s
    Count of elements : 1069
    Stream size : 39.8 KiB (0%)
    Language : Vietnamese
    Default : No
    Forced : No




    http://www.filecondo.com/dl.php?f=6ec9ff1M6eqD

  2. #2
    Senior Member
    สมัครเมื่อ
    Jul 2013
    โพสต์
    3,529
    Thanks
    0
    Thanked 0 Times in 0 Posts
    ขอบคุณครับ

+ ตอบกลับกระทู้

ข้อมูลกระทู้

Users Browsing this Thread

ในขณะนี้มี 1 ท่านดูกระทู้อยู่. (0 สมาชิกและ 1 ผู้เยี่ยมชม)

     

กฎการโพสต์ข้อความ

  • ท่าน ไม่สามารถ ตั้งกระทู้ใหม่ได้
  • ท่าน ไม่สามารถ ตอบกระทู้ได้
  • ท่าน ไม่สามารถ แนบไฟล์ได้
  • ท่าน ไม่สามารถ แก้ไขข้อความโพสต์ได้
  • BB code สถานะ เปิด
  • Smilies สถานะ เปิด
  • [IMG] สถานะ เปิด
  • HTML สถานะ ปิด