+ ตอบกลับกระทู้
สรุปผลการค้นหา 1 ถึง 2 จากทั้งหมด 2
  1. #1
    Administrators รูปส่วนตัว Duckload.us
    สมัครเมื่อ
    Dec 2010
    โพสต์
    133,190
    Thanks
    7
    Thanked 136,790 Times in 60,503 Posts

    Lightbulb [จีน]-Timeless Love (2021) รักเหนือกาลเวลา Ep.01-10 [1080p][ซับไทย]-WEB-DL.H.264.1080p. [Hi-def rip from Master]-[Soundtrack บรรยายไทย]




    หนุ่มน้อยรูปหล่อสไตล์หมาป่าเจียงเตียนบุกเข้าไปในบุ ๊คคาเฟ่โดยบังเอิญ แล้วตกหลุมรักเจ๊มั่นเย็นชาอย่างเฉิงเฝิงเข้า แต่กลับถูกปฏิเสธ เจียงเตียนตามจีบไม่เลิก ในที่สุดก็ไขปมในใจของเฉิงเฝิงได้ ทั้งสองคนเริ่มอยู่ด้วยกัน หลังจากที่อยู่ด้วยกันก็เริ่มมีปัญหาโผล่มา อุปสรรคจากข้างนอกก็ทยอยตามมาด้วย ด้วยปัญหาต่าง ๆ ถาถมทำให้สองคนไปต่อไม่ได้และเลิกกันไปด้วยแรงกดดัน แต่พวกเขาสัญญากันว่าจะกลายเป็นคนที่เก่งและดียิ่งขึ ้น








    Video
    ID : 1
    Format : AVC
    Format/Info : Advanced Video Codec
    Format profile : [email protected]
    Format settings : CABAC / 3 Ref Frames
    Format settings, CABAC : Yes
    Format settings, Reference : 3 frames
    Codec ID : V_MPEG4/ISO/AVC
    Duration : 46 min 12 s
    Bit rate : 1 886 kb/s
    Width : 1 920 pixels
    Height : 1 080 pixels
    Display aspect ratio : 16:9
    Frame rate mode : Constant
    Frame rate : 25.000 FPS
    Color space : YUV
    Chroma subsampling : 4:2:0
    Bit depth : 8 bits
    Scan type : Progressive
    Bits/(Pixel*Frame) : 0.036
    Stream size : 623 MiB (91%)
    Writing library : qiyi.com vtc-test
    Default : Yes
    Forced : No
    Color range : Limited
    Color primaries : BT.709
    Transfer characteristics : BT.709
    Matrix coefficients : BT.709

    Audio
    ID : 2
    Format : AAC LC
    Format/Info : Advanced Audio Codec Low Complexity
    Codec ID : A_AAC-2
    Duration : 46 min 12 s
    Bit rate : 192 kb/s
    Channel(s) : 2 channels
    Channel layout : L R
    Sampling rate : 44.1 kHz
    Frame rate : 43.066 FPS (1024 SPF)
    Compression mode : Lossy
    Stream size : 62.6 MiB (9%)
    Default : Yes
    Forced : No

    Text
    ID : 3
    Format : ASS
    Codec ID : S_TEXT/ASS
    Codec ID/Info : Advanced Sub Station Alpha
    Duration : 43 min 38 s
    Bit rate : 205 b/s
    Count of elements : 727
    Compression mode : Lossless
    Stream size : 65.6 KiB (0%)
    Title : Thai spark edit
    Language : Thai
    Default : Yes
    Forced : Yes



    01 http://www.filecondo.com/dl.php?f=w981201M9xQA
    02 http://www.filecondo.com/dl.php?f=D4abab1M9xRz
    03 http://www.filecondo.com/dl.php?f=sa2d2e1M9xSx
    04 http://www.filecondo.com/dl.php?f=p643f31M9xTv
    05 http://www.filecondo.com/dl.php?f=L340bb1M9xUt
    06 http://www.filecondo.com/dl.php?f=g2fbac1M9xVr
    07 http://www.filecondo.com/dl.php?f=kd10c51M9xWp
    08 http://www.filecondo.com/dl.php?f=De963f1M9xXn
    09 http://www.filecondo.com/dl.php?f=Bdc2571M9xYl
    10 http://www.filecondo.com/dl.php?f=s8da8a1M9xZi

  2. #2
    Junior Member
    สมัครเมื่อ
    Aug 2021
    โพสต์
    3
    Thanks
    0
    Thanked 0 Times in 0 Posts
    รบกวนอัพต่อด้วยนะคะ

+ ตอบกลับกระทู้

ข้อมูลกระทู้

Users Browsing this Thread

ในขณะนี้มี 1 ท่านดูกระทู้อยู่. (0 สมาชิกและ 1 ผู้เยี่ยมชม)

     

กฎการโพสต์ข้อความ

  • ท่าน ไม่สามารถ ตั้งกระทู้ใหม่ได้
  • ท่าน ไม่สามารถ ตอบกระทู้ได้
  • ท่าน ไม่สามารถ แนบไฟล์ได้
  • ท่าน ไม่สามารถ แก้ไขข้อความโพสต์ได้
  • BB code สถานะ เปิด
  • Smilies สถานะ เปิด
  • [IMG] สถานะ เปิด
  • HTML สถานะ ปิด