เรื่องราวชีวิตของนักศึกษาทั้ง 3 คน ยอจุน เพิ่งเข้ามหาวิทยาลัยมาปีแรก เขาเป็นคนบุคลิกสดใสน่ารัก เติบโตมากับครอบครัวที่ฐานะ แต่เขายังกลับรู้สึกได้รับความรักจากครอบครัวไม่มากพ อ ขณะที่ คิมโซบิน เป็นนักศึกษาชั้นปีที่ 3 เป็นคนจริงใจและซื่อตรง หลังจากที่พ่อแม่ได้แยกทางกันไป เธอตัดสินใจที่จะอยู่กับพ่อ และ นัมซูฮยอน เขาเป็นคนฉลาดและรักความสมบูรณ์แบบ แต่ก็สวนทางกับฐานะทางการเงินของเขาอย่างสิ้นเชิง เขาต้องรับจ้างทำงานนอกเวลาอย่างหนักหน่วง และยังมีแม่กับน้องที่ต้องดูแลด้วย




Video
ID : 1
Format : AVC
Format/Info : Advanced Video Codec
Format profile : [email protected]
Format settings : CABAC / 3 Ref Frames
Format settings, CABAC : Yes
Format settings, Reference : 3 frames
Codec ID : V_MPEG4/ISO/AVC
Duration : 1 h 2 min
Bit rate : 1 514 kb/s
Width : 1 920 pixels
Height : 960 pixels
Display aspect ratio : 2.000
Frame rate mode : Constant
Frame rate : 25.000 FPS
Color space : YUV
Chroma subsampling : 4:2:0
Bit depth : 8 bits
Scan type : Progressive
Bits/(Pixel*Frame) : 0.033
Stream size : 680 MiB (89%)
Writing library : qiyi.com vtc-test
Default : Yes
Forced : No
Color range : Limited
Color primaries : BT.709
Transfer characteristics : BT.709
Matrix coefficients : BT.709

Audio
ID : 2
Format : AAC LC
Format/Info : Advanced Audio Codec Low Complexity
Codec ID : A_AAC-2
Duration : 1 h 2 min
Bit rate : 192 kb/s
Channel(s) : 2 channels
Channel layout : L R
Sampling rate : 44.1 kHz
Frame rate : 43.066 FPS (1024 SPF)
Compression mode : Lossy
Stream size : 85.3 MiB (11%)
Default : Yes
Forced : No

Text #1
ID : 3
Format : ASS
Codec ID : S_TEXT/ASS
Codec ID/Info : Advanced Sub Station Alpha
Duration : 1 h 2 min
Bit rate : 189 b/s
Count of elements : 912
Compression mode : Lossless
Stream size : 86.9 KiB (0%)
Title : Thai spark edit
Language : Thai
Default : Yes
Forced : Yes

Text #2
ID : 4
Format : UTF-8
Codec ID : S_TEXT/UTF8
Codec ID/Info : UTF-8 Plain Text
Duration : 1 h 2 min
Bit rate : 146 b/s
Count of elements : 912
Stream size : 67.4 KiB (0%)
Title : Thai spark edit
Language : Thai
Default : Yes
Forced : No



01 http://www.filecondo.com/dl.php?f=02e65a1M987R
02 http://www.filecondo.com/dl.php?f=I3ad171M988N
03 http://www.filecondo.com/dl.php?f=j677141M98av
04 http://www.filecondo.com/dl.php?f=O1ca271M98bp
05 http://www.filecondo.com/dl.php?f=Iadb541M98bQ
06 http://www.filecondo.com/dl.php?f=xc61ca1M98cG
07 http://www.filecondo.com/dl.php?f=dbb6fc1M98dQ
08 http://www.filecondo.com/dl.php?f=Dbc92e1M98eJ
09 http://www.filecondo.com/dl.php?f=9c3e8c1M98fv
10 http://www.filecondo.com/dl.php?f=l2d9201M98gt
11 http://www.filecondo.com/dl.php?f=j9320b1M98hw
12 http://www.filecondo.com/dl.php?f=b459d21M98ix