+ ตอบกลับกระทู้
สรุปผลการค้นหา 1 ถึง 2 จากทั้งหมด 2
  1. #1
    Administrators รูปส่วนตัว Duckload.us
    สมัครเมื่อ
    Dec 2010
    โพสต์
    133,606
    Thanks
    7
    Thanked 137,706 Times in 60,816 Posts

    Lightbulb [ฝรั่ง]-The Golden Child (1986) ฟ้าส่งข้ามาลุย-Blu-ray.DTS.1080p. [Modified]-[พากย์อังกฤษ 5.1 บรรยายไทย-อังกฤษ]




    นักสังคมสงเคราะห์ฝีปากเก่งในแอลเอต้องฝ่ากับดักและด ่านน่ากลัวมากมายเพื่อตามหาเด็กทิเบตผู้มีพลังวิเศษท ี่ถูกลักพาตัวไป

    Format : Matroska
    Format version : Version 4
    File size : 4.33 GiB
    Duration : 1 h 33 min
    Overall bit rate : 6 626 kb/s
    Encoded date : UTC 2021-08-02 01:12:58
    Writing application : mkvmerge v60.0.0 ('Are We Copies?') 64-bit
    Writing library : libebml v1.4.2 + libmatroska v1.6.4

    Video
    ID : 1
    Format : AVC
    Format/Info : Advanced Video Codec
    Format profile : [email protected]
    Format settings : CABAC / 3 Ref Frames
    Format settings, CABAC : Yes
    Format settings, Reference : 3 frames
    Codec ID : V_MPEG4/ISO/AVC
    Duration : 1 h 33 min
    Bit rate : 5 101 kb/s
    Width : 1 920 pixels
    Height : 1 080 pixels
    Display aspect ratio : 16:9
    Frame rate mode : Constant
    Frame rate : 23.976 (24000/1001) FPS
    Color space : YUV
    Chroma subsampling : 4:2:0
    Bit depth : 8 bits
    Scan type : Progressive
    Bits/(Pixel*Frame) : 0.103
    Stream size : 3.33 GiB (77%)
    Language : English
    Default : Yes
    Forced : No

    Audio
    ID : 2
    Format : DTS
    Format/Info : Digital Theater Systems
    Codec ID : A_DTS
    Duration : 1 h 33 min
    Bit rate mode : Constant
    Bit rate : 1 509 kb/s
    Channel(s) : 6 channels
    Channel layout : C L R Ls Rs LFE
    Sampling rate : 48.0 kHz
    Frame rate : 93.750 FPS (512 SPF)
    Bit depth : 24 bits
    Compression mode : Lossy
    Stream size : 1 009 MiB (23%)
    Title : DTS English
    Language : English
    Default : Yes
    Forced : No

    Text #1
    ID : 3
    Format : VobSub
    Muxing mode : zlib
    Codec ID : S_VOBSUB
    Codec ID/Info : Picture based subtitle format used on DVDs
    Duration : 1 h 24 min
    Bit rate : 8 572 b/s
    Count of elements : 604
    Stream size : 5.21 MiB (0%)
    Title : Sub Thai 1080p
    Language : Thai
    Default : No
    Forced : No

    Text #2
    ID : 4
    Format : UTF-8
    Codec ID : S_TEXT/UTF8
    Codec ID/Info : UTF-8 Plain Text
    Duration : 1 h 24 min
    Bit rate : 87 b/s
    Count of elements : 604
    Stream size : 54.6 KiB (0%)
    Title : Sub Thai SRT
    Language : Thai
    Default : No
    Forced : No

    Text #3
    ID : 5
    Format : PGS
    Muxing mode : zlib
    Codec ID : S_HDMV/PGS
    Codec ID/Info : Picture based subtitle format used on BDs/HD-DVDs
    Duration : 1 h 24 min
    Bit rate : 23.6 kb/s
    Count of elements : 1208
    Stream size : 14.3 MiB (0%)
    Title : Sub Thai PGS
    Language : Thai
    Default : Yes
    Forced : No

    Text #4
    ID : 6
    Format : UTF-8
    Codec ID : S_TEXT/UTF8
    Codec ID/Info : UTF-8 Plain Text
    Duration : 1 h 24 min
    Bit rate : 42 b/s
    Count of elements : 631
    Stream size : 26.3 KiB (0%)
    Title : Sub English SRT
    Language : English
    Default : No
    Forced : No

    Menu
    00:00:00.000 : :Kidnapped
    00:05:53.603 : :Lost Children
    00:10:46.020 : :He's No Angel
    00:13:09.205 : :Already on the Case
    00:17:10.696 : :The Chosen One
    00:22:03.864 : :You Will Eat
    00:25:11.468 : :A Vision of the Child
    00:27:09.294 : :The Yellow Dragons
    00:34:02.248 : :Tommy Tong's
    00:37:16.901 : :The Ajanti Dagger
    00:39:16.854 : :An Attractive Offer
    00:44:49.603 : :A Dagger for a Child
    00:47:46.863 : :Tibet
    00:55:21.735 : :Stay on the Path
    01:04:01.045 : :So Little Understanding
    01:07:52.318 : :Viva Nepal!
    01:11:04.385 : :My Brother Numspa
    01:13:36.912 : :A Pure Heart
    01:19:57.042 : :Freeing the Child
    01:26:17.964 : :Sundown
    01:29:35.370 : :End Credits




    http://www.filecondo.com/dl.php?f=i8e9ee1Mb2Ej

  2. #2
    Junior Member
    สมัครเมื่อ
    Jan 2022
    โพสต์
    2
    Thanks
    0
    Thanked 0 Times in 0 Posts
    โหลดไม่ได้ช่วยแก้ไขดัวย

+ ตอบกลับกระทู้

ข้อมูลกระทู้

Users Browsing this Thread

ในขณะนี้มี 1 ท่านดูกระทู้อยู่. (0 สมาชิกและ 1 ผู้เยี่ยมชม)

     

กฎการโพสต์ข้อความ

  • ท่าน ไม่สามารถ ตั้งกระทู้ใหม่ได้
  • ท่าน ไม่สามารถ ตอบกระทู้ได้
  • ท่าน ไม่สามารถ แนบไฟล์ได้
  • ท่าน ไม่สามารถ แก้ไขข้อความโพสต์ได้
  • BB code สถานะ เปิด
  • Smilies สถานะ เปิด
  • [IMG] สถานะ เปิด
  • HTML สถานะ ปิด