ผู้คนบนโลกมนุษย์หากพบกับปัญหาการพรากจากก็จะไปกราบไ หว้เทพเซียนขอความช่วยเหลือ แต่หากเป็นเทพเซียนเองเล่า? ซีรีส์เรื่องนี้เล่าถึงความรักที่แสนอาภัพหลังมีความ เป็นตายพรากจากอยู่หลายครั้งของไป๋เจวี๋ยกับซ่างกู่ สองในสี่เทพบรรพกาลในอดีต โดยยึดเอาชีวิตของซ่างกู่เป็นตัวดำเนินเรื่อง จาก “ไก่อ่อน” พลังตบะน้อยนิดกลายมาเป็นมหาเทพที่แบกรับภาระอันใหญ่ หลวง ถึงกระนั้นก็ยังคงหนีไม่พ้นโซ่ตรวนแห่งโชคชะตา เทพมีอายุขัยยืนยาว รักฝังลึก มีคนถึงกับยอมทำลายฟ้าทลายดินเพื่อนาง ต่อให้สามพิภพต้องดับสิ้นก็มิถือสา

Video
ID : 1
Format : AVC
Format/Info : Advanced Video Codec
Format profile : [email protected]
Format settings : CABAC / 4 Ref Frames
Format settings, CABAC : Yes
Format settings, Reference : 4 frames
Codec ID : V_MPEG4/ISO/AVC
Duration : 44 min 16 s
Bit rate : 2 139 kb/s
Width : 1 920 pixels
Height : 1 080 pixels
Display aspect ratio : 16:9
Frame rate mode : Constant
Frame rate : 25.000 FPS
Color space : YUV
Chroma subsampling : 4:2:0
Bit depth : 8 bits
Scan type : Progressive
Bits/(Pixel*Frame) : 0.041
Stream size : 677 MiB (92%)
Writing library : ptw-1.0.131 rcm-vary vbl-0 vwk
Default : Yes
Forced : No
Color range : Limited
Color primaries : BT.709
Transfer characteristics : BT.709
Matrix coefficients : BT.709

Audio #1
ID : 5
Format : AAC LC
Format/Info : Advanced Audio Codec Low Complexity
Codec ID : A_AAC-2
Duration : 44 min 16 s
Bit rate : 93.4 kb/s
Channel(s) : 2 channels
Channel layout : L R
Sampling rate : 48.0 kHz
Frame rate : 46.875 FPS (1024 SPF)
Compression mode : Lossy
Delay relative to video : -42 ms
Stream size : 29.6 MiB (4%)
Title : Thai Spark Edit
Language : Thai
Default : Yes
Forced : No

Audio #2
ID : 6
Format : AAC LC
Format/Info : Advanced Audio Codec Low Complexity
Codec ID : A_AAC-2
Duration : 44 min 16 s
Bit rate : 93.4 kb/s
Channel(s) : 2 channels
Channel layout : L R
Sampling rate : 48.0 kHz
Frame rate : 46.875 FPS (1024 SPF)
Compression mode : Lossy
Delay relative to video : -42 ms
Stream size : 29.6 MiB (4%)
Title : Mandarin
Language : Chinese
Default : Yes
Forced : No

Text #1
ID : 2
Format : ASS
Codec ID : S_TEXT/ASS
Codec ID/Info : Advanced Sub Station Alpha
Duration : 42 min 46 s
Bit rate : 303 b/s
Count of elements : 912
Compression mode : Lossless
Stream size : 95.0 KiB (0%)
Title : Thai Spark (Pc)
Language : Thai
Default : Yes
Forced : Yes

Text #2
ID : 3
Format : ASS
Codec ID : S_TEXT/ASS
Codec ID/Info : Advanced Sub Station Alpha
Duration : 42 min 46 s
Bit rate : 303 b/s
Count of elements : 912
Compression mode : Lossless
Stream size : 95.0 KiB (0%)
Title : Thai Spark (TV)
Language : Thai
Default : Yes
Forced : No

Text #3
ID : 4
Format : UTF-8
Codec ID : S_TEXT/UTF8
Codec ID/Info : UTF-8 Plain Text
Duration : 42 min 46 s
Bit rate : 240 b/s
Count of elements : 912
Stream size : 75.5 KiB (0%)
Title : Thai Spark (Srt)
Language : Thai
Default : Yes
Forced : No

















01
http://www.filecondo.com/dl.php?f=8548821MgH9O
02
http://www.filecondo.com/dl.php?f=f937001MgHc3
03
http://www.filecondo.com/dl.php?f=6d8aae1MgHdO
04
http://www.filecondo.com/dl.php?f=r7227e1MgHeB
05
http://www.filecondo.com/dl.php?f=Y866da1MgHfr
06
http://www.filecondo.com/dl.php?f=30014e1MgHgh
07
http://www.filecondo.com/dl.php?f=a37c631MgHhc
08
http://www.filecondo.com/dl.php?f=M8bb4f1MgHi7
09
http://www.filecondo.com/dl.php?f=fe76181MgHj7
10
http://www.filecondo.com/dl.php?f=v71c631MgHk7
11
http://www.filecondo.com/dl.php?f=c87b3f1MgHlb
12
http://www.filecondo.com/dl.php?f=4bdca91MgHm1
13
http://www.filecondo.com/dl.php?f=ra89a51MgHmZ
14
http://www.filecondo.com/dl.php?f=Z0ba081MgHnX
15
http://www.filecondo.com/dl.php?f=Hf64651MgHoU
16
http://www.filecondo.com/dl.php?f=Z170ee1MgHpT
17
http://www.filecondo.com/dl.php?f=S9c95a1MgHqQ
18
http://www.filecondo.com/dl.php?f=x0b1a61MgHrQ
19
http://www.filecondo.com/dl.php?f=5aff6d1MgHsM
20
http://www.filecondo.com/dl.php?f=21ab521MgHtL
21
http://www.filecondo.com/dl.php?f=7c0abb1MgHuK
22
http://www.filecondo.com/dl.php?f=l6a1331MgHwt
23
http://www.filecondo.com/dl.php?f=W154771MgHy3
24
http://www.filecondo.com/dl.php?f=97c4061MgHzT
25
http://www.filecondo.com/dl.php?f=g1932d1MgHAx
26
http://www.filecondo.com/dl.php?f=A8bf421MgHBw
27
http://www.filecondo.com/dl.php?f=A8e9301MgHCs
28
http://www.filecondo.com/dl.php?f=j520021MgHEg
29
http://www.filecondo.com/dl.php?f=Q210951MgHFn
30
http://www.filecondo.com/dl.php?f=k68d261MgHGs
31
http://www.filecondo.com/dl.php?f=Ja99d01MgHHj
32
http://www.filecondo.com/dl.php?f=Je8b4a1MgHIi
33
http://www.filecondo.com/dl.php?f=z160bd1MgHJy
34
http://www.filecondo.com/dl.php?f=62a16c1MgHKq
35
http://www.filecondo.com/dl.php?f=V064cc1MgHLk
36
http://www.filecondo.com/dl.php?f=I99bb81MgHM9
37
http://www.filecondo.com/dl.php?f=i2ce061MgHN7
38
http://www.filecondo.com/dl.php?f=7f8d451MgHO5
39
http://www.filecondo.com/dl.php?f=4ec0c81MgHP2
40
http://www.filecondo.com/dl.php?f=m43c341MgHQ1
41
http://www.filecondo.com/dl.php?f=Nbf47d1MgHRw
42
http://www.filecondo.com/dl.php?f=J7a88a1MgHS3
43
http://www.filecondo.com/dl.php?f=L624cd1MgHSW
44
http://www.filecondo.com/dl.php?f=38064d1MgHTV
45
http://www.filecondo.com/dl.php?f=Id861f1MgHUT
46
http://www.filecondo.com/dl.php?f=V33b801MgHVU
47
http://www.filecondo.com/dl.php?f=b457161MgHXf
48
http://www.filecondo.com/dl.php?f=3e9cae1MgHXQ
49
http://www.filecondo.com/dl.php?f=me66361MgHYM