The Terminator 1 (1984) คนเหล็ก

เรื่องย่อ
ภาพยนตร์กล่าวถึงโลกอนาคตในปี ค.ศ. 2029 ที่ถูกปกครองด้วยคอมพิวเตอร์ชื่อ SkyNet
หลังเกิดสงครามนิวเคลียร์ ฝ่ายมนุษย์ได้รวมกลุ่มขึ้นต่อต้าน นำโดย จอห์น คอนเนอร์
ฝ่ายผู้ปกครองจึงส่ง เดอะ เทอร์มิเนเตอร์ หุ่นยนต์สังหารรุ่น T-800 (รับบทโดย ชวาร์เซเน็กเกอร์)
ย้อนเวลามายังลอสแอนเจลิส ในปี ค.ศ. 1984 เพื่อสังหาร ซาราห์ คอนเนอร์ มารดาของจอห์น (รับบทโดย แฮมิลตัน)
ฝ่ายจอห์น คอนเนอร์ก็ได้ส่ง ไคย์ล รีส ทหารรุ่นน้อง (รับบทโดย บีห์น) เดินทางย้อนเวลากลับมาขัดขวางเดอะ เทอร์มิเนเตอร์
ในระหว่างที่ซาราห์ คอนเนอร์ และไคย์ล รีส เดินทางหลบหนีการตามล่าของเดอะ เทอร์มิเนเตอร์
ก็ได้ร่วมรักกัน เหตุการณ์จึงกลายเป็นว่า แท้ที่จริงแล้ว ไคย์ล รีส นั่นเองที่เป็นบิดาของ จอห์น คอนเนอร์
ภาพยนตร์จบลงโดย เดอะ เทอร์มิเนเตอร์ ถูกทำลายไป พร้อมกับการเสียชีวิตของไคย์ล รีส
ส่วนซาราห์ คอนเนอร์ ที่ตั้งครรภ์อ่อนๆ ได้ขับรถตามลำพัง เดินทางออกจากสหรัฐไปยังชายแดนเม็กซิโก


General
Complete name : [Mini HD] Terminator.1.1984.REMASTERED.BluRay.1080p.DTS.x265 .mkv
Format : Matroska
Format version : Version 4
File size : 2.98 GiB
Duration : 1 h 49 min
Overall bit rate : 3 895 kb/s
Movie name : [Mini HD] The.Terminator.1984.REMASTERED.BluRay.1080p.DTS.x2 65 - [email protected]
Encoded date : UTC 2021-06-17 09:54:13
Writing application : mkvmerge v45.0.0 ('Heaven in Pennies') 64-bit
Writing library : libebml v1.3.10 + libmatroska v1.5.2
Attachments : The Terminator 1 (1984).jpg

Video
ID : 1
Format : HEVC
Format/Info : High Efficiency Video Coding
Format profile : Main [email protected]@Main
Codec ID : V_MPEGH/ISO/HEVC
Duration : 1 h 47 min
Bit rate : 2 000 kb/s
Width : 1 920 pixels
Height : 1 040 pixels
Display aspect ratio : 1.85:1
Frame rate mode : Constant
Frame rate : 23.976 (24000/1001) FPS
Color space : YUV
Chroma subsampling : 4:2:0
Bit depth : 10 bits
Bits/(Pixel*Frame) : 0.042
Stream size : 1.50 GiB (50%)
Writing library : x265 3.3+4-siambit.me-30eb4de83092:[Linux][GCC 8.3.1][64 bit] 10bit
Encoding settings : cpuid=1111039 / frame-threads=4 / wpp / no-pmode / no-pme / no-psnr / no-ssim / log-level=2 / input-csp=1 / input-res=1920x1040 / interlace=0 / total-frames=0 / level-idc=0 / high-tier=1 / uhd-bd=0 / ref=4 / no-allow-non-conformance / no-repeat-headers / annexb / no-aud / no-hrd / info / hash=0 / no-temporal-layers / open-gop / min-keyint=23 / keyint=250 / gop-lookahead=0 / bframes=4 / b-adapt=2 / b-pyramid / bframe-bias=0 / rc-lookahead=25 / lookahead-slices=4 / scenecut=40 / hist-scenecut=0 / radl=0 / no-splice / no-intra-refresh / ctu=64 / min-cu-size=8 / rect / no-amp / max-tu-size=32 / tu-inter-depth=1 / tu-intra-depth=1 / limit-tu=0 / rdoq-level=2 / dynamic-rd=0.00 / no-ssim-rd / signh-i-d-e / no-tskip / nr-intra=0 / nr-inter=0 / no-constrained-intra / strong-intra-smoothing / max-merge=3 / limit-refs=3 / limit-modes / me=3 / subme=3 / merange=57 / temporal-mvp / no-frame-dup / no-hme / weightp / no-weightb / no-analyze-src-pics / deblock=0:0 / no-sao / no-sao-non-deblock / rd=4 / selective-sao=0 / no-early-skip / rskip / no-fast-intra / no-tskip-fast / no-cu-lossless / no-b-intra / no-splitrd-skip / rdpenalty=0 / psy-rd=2.00 / psy-rdoq=1.00 / no-rd-refine / no-lossless / cbqpoffs=0 / crqpoffs=0 / rc=abr / bitrate=2000 / qcomp=0.60 / qpstep=4 / stats-write=0 / stats-read=2 / cplxblur=20.0 / qblur=0.5 / ipratio=1.40 / pbratio=1.30 / aq-mode=3 / aq-strength=1.00 / cutree / zone-count=0 / no-strict-cbr / qg-size=32 / no-rc-grain / qpmax=69 / qpmin=0 / no-const-vbv / sar=1 / overscan=0 / videoformat=5 / range=0 / colorprim=2 / transfer=2 / colormatrix=2 / chromaloc=0 / display-window=0 / cll=0,0 / min-luma=0 / max-luma=1023 / log2-max-poc-lsb=8 / vui-timing-info / vui-hrd-info / slices=1 / no-opt-qp-pps / no-opt-ref-list-length-pps / no-multi-pass-opt-rps / scenecut-bias=0.05 / hist-threshold=0.01 / no-opt-cu-delta-qp / no-aq-motion / no-hdr10 / no-hdr10-opt / no-dhdr10-opt / no-idr-recovery-sei / analysis-reuse-level=0 / analysis-save-reuse-level=0 / analysis-load-reuse-level=0 / scale-factor=0 / refine-intra=0 / refine-inter=0 / refine-mv=1 / refine-ctu-distortion=0 / no-limit-sao / ctu-info=0 / no-lowpass-dct / refine-analysis-type=0 / copy-pic=1 / max-ausize-factor=1.0 / no-dynamic-refine / no-single-sei / no-hevc-aq / no-svt / no-field / qp-adaptation-range=1.00 / no-scenecut-aware-qpconformance-window-offsets / right=0 / bottom=0
Default : Yes
Forced : No

Audio #1
ID : 2
Format : AC-3
Format/Info : Audio Coding 3
Commercial name : Dolby Digital
Codec ID : A_AC3
Duration : 1 h 47 min
Bit rate mode : Constant
Bit rate : 384 kb/s
Channel(s) : 2 channels
Channel layout : L R
Sampling rate : 48.0 kHz
Frame rate : 31.250 FPS (1536 SPF)
Bit depth : 16 bits
Compression mode : Lossy
Stream size : 295 MiB (10%)
Title : Thai AC-3
Language : Thai
Service kind : Complete Main
Default : Yes
Forced : No

Audio #2
ID : 3
Format : DTS
Format/Info : Digital Theater Systems
Codec ID : A_DTS
Duration : 1 h 47 min
Bit rate mode : Constant
Bit rate : 1 509 kb/s
Channel(s) : 6 channels
Channel layout : C L R Ls Rs LFE
Sampling rate : 48.0 kHz
Frame rate : 93.750 FPS (512 SPF)
Bit depth : 24 bits
Compression mode : Lossy
Delay relative to video : 5 ms
Stream size : 1.13 GiB (38%)
Title : Eng DTS
Language : English
Default : No
Forced : No

Text #1
ID : 4
Format : PGS
Muxing mode : zlib
Codec ID : S_HDMV/PGS
Codec ID/Info : Picture based subtitle format used on BDs/HD-DVDs
Duration : 1 h 49 min
Bit rate : 25.5 kb/s
Count of elements : 1256
Stream size : 19.9 MiB (1%)
Title : Thai PGS
Language : Thai
Default : Yes
Forced : No

Text #2
ID : 5
Format : PGS
Muxing mode : zlib
Codec ID : S_HDMV/PGS
Codec ID/Info : Picture based subtitle format used on BDs/HD-DVDs
Duration : 1 h 49 min
Bit rate : 25.5 kb/s
Count of elements : 1256
Stream size : 19.9 MiB (1%)
Title : Thai PGS Out
Language : Thai
Default : No
Forced : No

Text #3
ID : 6
Format : PGS
Muxing mode : zlib
Codec ID : S_HDMV/PGS
Codec ID/Info : Picture based subtitle format used on BDs/HD-DVDs
Duration : 1 h 46 min
Bit rate : 22.3 kb/s
Count of elements : 1444
Stream size : 16.9 MiB (1%)
Title : Eng PGS
Language : English
Default : No
Forced : No

Text #4
ID : 7
Format : PGS
Muxing mode : zlib
Codec ID : S_HDMV/PGS
Codec ID/Info : Picture based subtitle format used on BDs/HD-DVDs
Duration : 1 h 46 min
Bit rate : 22.3 kb/s
Count of elements : 1444
Stream size : 16.9 MiB (1%)
Title : Eng PGS Out
Language : English
Default : No
Forced : No

Text #5
ID : 8
Format : PGS
Muxing mode : zlib
Codec ID : S_HDMV/PGS
Codec ID/Info : Picture based subtitle format used on BDs/HD-DVDs
Duration : 1 h 49 min
Bit rate : 20.0 kb/s
Count of elements : 1448
Stream size : 15.7 MiB (1%)
Title : Eng PGS HSD
Language : English
Default : No
Forced : No

Text #6
ID : 9
Format : PGS
Muxing mode : zlib
Codec ID : S_HDMV/PGS
Codec ID/Info : Picture based subtitle format used on BDs/HD-DVDs
Duration : 1 h 49 min
Bit rate : 20.0 kb/s
Count of elements : 1448
Stream size : 15.7 MiB (1%)
Title : Eng PGS HSD Out
Language : English
Default : No
Forced : No

Text #7
ID : 10
Format : UTF-8
Codec ID : S_TEXT/UTF8
Codec ID/Info : UTF-8 Plain Text
Duration : 1 h 43 min
Bit rate : 27 b/s
Count of elements : 563
Stream size : 20.9 KiB (0%)
Title : Eng SRT
Language : English
Default : No
Forced : No

Menu
00:00:00.000 : en:2029 a.D./Main Title
00:03:32.253 : en:The Arrival
00:05:18.151 : en:New Wardrobe
00:06:31.015 : en:Second Visitor
00:11:38.322 : en:Hard-Working Girl
00:13:45.324 : en:Gun Men
00:15:11.827 : en: Sarah Connor?
00:20:44.618 : en:Phone Book Rampage
00:22:49.618 : en:Last One Left
00:29:49.787 : en:Uninvited Guest
00:33:15.034 : en:The Last Day of Disco
00:38:47.116 : en:Running Commentary
00:41:25.191 : en:The Possible Future
00:47:46.488 : en: Drive!
00:50:39.995 : en:Safety in Uniforms
00:54:41.569 : en:Self-Service
00:59:04.916 : en:I'll Be Back!
01:03:53.538 : en:Mother of the Future
01:09:37.548 : en:The War to Come
01:14:08.986 : en:Answering Machine
01:15:00.078 : en:Not Mom
01:17:18.800 : en:Recipe for Disaster
01:18:30.372 : en:Present for the Future
01:23:00.892 : en:Hot Pursuit
01:26:24.721 : en:Run Over By a Truck
01:30:22.583 : en:Hunk O' Burning Steel
01:32:19.367 : en:Factory Foolery
01:35:52.121 : en:Head Without Heels
01:39:53.862 : en:Survivor
01:40:18.721 : en:Tapes for John
01:40:49.334 : en:A Storm Is Coming
01:43:12.895 : en:End Credits







xxxxxxxxxxxxxxxxxxxxxxxxxxxxxxxxxxxxxxxxxxxxxxxxxx xxxxxxx




The Terminator 2 Judgment Day (1991) วันพิพากษา

เรื่องย่อ
เรื่อง ราวการทำนายหายนะของมนุษยชาติที่จะดับสูญด้วยน้ำมือข องสกายเน็ต เครือข่ายเครื่องจักรสมองกลขนาดยักษ์
อวสานของโลกถูกกำหนดไว้วันที่ 29 สิงหาคม 1997
เวลานี้สกายเน็ตได้ให้กำเนิด T-1000 หุ่นยนต์เทคโนโลยีใหม่ล่าสุดที่ล้ำหน้ากว่า T-800
มันถูกส่งข้ามเวลามาเพื่อสังหารจอห์น คอนเนอร์ บุตรชายของซาร่าห์ ผู้ที่จะกลายเป็นผู้นำมนุษย์ ต่อต้านฝ่ายจักรกล
ขณะเดียวกันทางฝ่ายมนุษย์ก็ได้ส่งหุ่นรบรุ่น T-800 อีกตัวมายังโลกปัจจุบัน
เพื่อคุ้มครองผู้นำในวัยเด็กของพวกเขาให้ปลอดภัย...


General
Complete name : [Mini HD] Terminator.2.Judgement.Day.1991.DC.REMASTERED.BluR ay.1080p.DTS.x265.mkv
Format : Matroska
Format version : Version 4
File size : 4.31 GiB
Duration : 2 h 33 min
Overall bit rate : 4 006 kb/s
Movie name : [Mini HD] Terminator.2.Judgement.Day.1991.DC.REMASTERED.BluR ay.1080p.DTS.x265 - [email protected]
Encoded date : UTC 2021-06-17 11:12:02
Writing application : mkvmerge v45.0.0 ('Heaven in Pennies') 64-bit
Writing library : libebml v1.3.10 + libmatroska v1.5.2
Attachments : The Terminator 2 Judgment Day (1991).jpg

Video
ID : 1
Format : HEVC
Format/Info : High Efficiency Video Coding
Format profile : Main [email protected]@Main
Codec ID : V_MPEGH/ISO/HEVC
Duration : 2 h 33 min
Bit rate : 2 000 kb/s
Width : 1 920 pixels
Height : 800 pixels
Display aspect ratio : 2.40:1
Frame rate mode : Constant
Frame rate : 23.976 (24000/1001) FPS
Color space : YUV
Chroma subsampling : 4:2:0
Bit depth : 10 bits
Bits/(Pixel*Frame) : 0.054
Stream size : 2.14 GiB (50%)
Writing library : x265 3.3+4-siambit.me-30eb4de83092:[Linux][GCC 8.3.1][64 bit] 10bit
Encoding settings : cpuid=1111039 / frame-threads=4 / wpp / no-pmode / no-pme / no-psnr / no-ssim / log-level=2 / input-csp=1 / input-res=1920x800 / interlace=0 / total-frames=0 / level-idc=0 / high-tier=1 / uhd-bd=0 / ref=4 / no-allow-non-conformance / no-repeat-headers / annexb / no-aud / no-hrd / info / hash=0 / no-temporal-layers / open-gop / min-keyint=23 / keyint=250 / gop-lookahead=0 / bframes=4 / b-adapt=2 / b-pyramid / bframe-bias=0 / rc-lookahead=25 / lookahead-slices=4 / scenecut=40 / hist-scenecut=0 / radl=0 / no-splice / no-intra-refresh / ctu=64 / min-cu-size=8 / rect / no-amp / max-tu-size=32 / tu-inter-depth=1 / tu-intra-depth=1 / limit-tu=0 / rdoq-level=2 / dynamic-rd=0.00 / no-ssim-rd / signh-i-d-e / no-tskip / nr-intra=0 / nr-inter=0 / no-constrained-intra / strong-intra-smoothing / max-merge=3 / limit-refs=3 / limit-modes / me=3 / subme=3 / merange=57 / temporal-mvp / no-frame-dup / no-hme / weightp / no-weightb / no-analyze-src-pics / deblock=0:0 / no-sao / no-sao-non-deblock / rd=4 / selective-sao=0 / no-early-skip / rskip / no-fast-intra / no-tskip-fast / no-cu-lossless / no-b-intra / no-splitrd-skip / rdpenalty=0 / psy-rd=2.00 / psy-rdoq=1.00 / no-rd-refine / no-lossless / cbqpoffs=0 / crqpoffs=0 / rc=abr / bitrate=2000 / qcomp=0.60 / qpstep=4 / stats-write=0 / stats-read=2 / cplxblur=20.0 / qblur=0.5 / ipratio=1.40 / pbratio=1.30 / aq-mode=3 / aq-strength=1.00 / cutree / zone-count=0 / no-strict-cbr / qg-size=32 / no-rc-grain / qpmax=69 / qpmin=0 / no-const-vbv / sar=1 / overscan=0 / videoformat=5 / range=0 / colorprim=2 / transfer=2 / colormatrix=2 / chromaloc=0 / display-window=0 / cll=0,0 / min-luma=0 / max-luma=1023 / log2-max-poc-lsb=8 / vui-timing-info / vui-hrd-info / slices=1 / no-opt-qp-pps / no-opt-ref-list-length-pps / no-multi-pass-opt-rps / scenecut-bias=0.05 / hist-threshold=0.01 / no-opt-cu-delta-qp / no-aq-motion / no-hdr10 / no-hdr10-opt / no-dhdr10-opt / no-idr-recovery-sei / analysis-reuse-level=0 / analysis-save-reuse-level=0 / analysis-load-reuse-level=0 / scale-factor=0 / refine-intra=0 / refine-inter=0 / refine-mv=1 / refine-ctu-distortion=0 / no-limit-sao / ctu-info=0 / no-lowpass-dct / refine-analysis-type=0 / copy-pic=1 / max-ausize-factor=1.0 / no-dynamic-refine / no-single-sei / no-hevc-aq / no-svt / no-field / qp-adaptation-range=1.00 / no-scenecut-aware-qpconformance-window-offsets / right=0 / bottom=0
Language : English
Default : Yes
Forced : No

Audio #1
ID : 2
Format : AC-3
Format/Info : Audio Coding 3
Commercial name : Dolby Digital
Codec ID : A_AC3
Duration : 2 h 33 min
Bit rate mode : Constant
Bit rate : 448 kb/s
Channel(s) : 6 channels
Channel layout : L R C LFE Ls Rs
Sampling rate : 48.0 kHz
Frame rate : 31.250 FPS (1536 SPF)
Bit depth : 16 bits
Compression mode : Lossy
Delay relative to video : 31 s 0 ms
Stream size : 492 MiB (11%)
Title : Thai AC-3
Language : Thai
Service kind : Complete Main
Default : No
Forced : No

Audio #2
ID : 3
Format : DTS
Format/Info : Digital Theater Systems
Codec ID : A_DTS
Duration : 2 h 33 min
Bit rate mode : Constant
Bit rate : 1 509 kb/s
Channel(s) : 6 channels
Channel layout : C L R Ls Rs LFE
Sampling rate : 48.0 kHz
Frame rate : 93.750 FPS (512 SPF)
Bit depth : 24 bits
Compression mode : Lossy
Stream size : 1.62 GiB (37%)
Title : Eng DTS
Language : English
Default : Yes
Forced : No

Text #1
ID : 4
Format : PGS
Muxing mode : zlib
Codec ID : S_HDMV/PGS
Codec ID/Info : Picture based subtitle format used on BDs/HD-DVDs
Duration : 2 h 27 min
Bit rate : 18.6 kb/s
Count of elements : 2082
Stream size : 19.7 MiB (0%)
Title : Thai PGS
Language : Thai
Default : Yes
Forced : No

Text #2
ID : 5
Format : PGS
Muxing mode : zlib
Codec ID : S_HDMV/PGS
Codec ID/Info : Picture based subtitle format used on BDs/HD-DVDs
Duration : 2 h 27 min
Bit rate : 18.6 kb/s
Count of elements : 2082
Stream size : 19.7 MiB (0%)
Title : Thai PGS Out
Language : Thai
Default : No
Forced : No

Text #3
ID : 6
Format : PGS
Muxing mode : zlib
Codec ID : S_HDMV/PGS
Codec ID/Info : Picture based subtitle format used on BDs/HD-DVDs
Duration : 2 h 27 min
Bit rate : 43.5 kb/s
Count of elements : 3074
Stream size : 45.8 MiB (1%)
Title : Eng PGS
Language : English
Default : No
Forced : No

Text #4
ID : 7
Format : PGS
Muxing mode : zlib
Codec ID : S_HDMV/PGS
Codec ID/Info : Picture based subtitle format used on BDs/HD-DVDs
Duration : 2 h 27 min
Bit rate : 43.5 kb/s
Count of elements : 3074
Stream size : 45.8 MiB (1%)
Title : Eng PGS Out
Language : English
Default : No
Forced : No

Text #5
ID : 8
Format : UTF-8
Codec ID : S_TEXT/UTF8
Codec ID/Info : UTF-8 Plain Text
Duration : 2 h 31 min
Bit rate : 30 b/s
Count of elements : 1130
Stream size : 33.9 KiB (0%)
Title : Eng SRT
Language : English
Default : No
Forced : No

Menu
00:00:00.000 : en:00:00:00.000
00:09:42.415 : en:00:09:42.415
00:26:27.669 : en:00:26:27.669
00:39:21.943 : en:00:39:21.943
00:53:08.519 : en:00:53:08.519
01:06:55.845 : en:01:06:55.845
01:26:56.294 : en:01:26:56.294
01:36:19.357 : en:01:36:19.357
01:44:55.289 : en:01:44:55.289
01:54:56.890 : en:01:54:56.890
02:05:34.110 : en:02:05:34.110
02:19:47.462 : en:02:19:47.462







xxxxxxxxxxxxxxxxxxxxxxxxxxxxxxxxxxxxxxxxxxxxxxxxxx xxxxxxx




The Terminator 3 Rise Of The Machines (2003) กำเนิดใหม่เครื่องจักรสังหาร

เรื่องย่อ
หนึ่งทศวรรษผ่านไป
นับตั้งแต่ จอห์น คอนเนอร์ (นิค สธาร์ล) ได้ช่วยปกป้องวันสิ้นโลก และรักษามวลมนุษยชาติเอาไว้ได้
นั่นก็คือวันที่เครือข่ายแห่งเครื่องจักรกล ที่ผ่านการพัฒนาอย่างรวดเร็วของ สกายเน็ตกลายเป็นเครื่องจักรกลที่มีความคิด และเริ่มทำลายมนุษยชาติ แต่วันที่ 29 สิงหาคม ปี 1997 ผ่านมาและผ่านไป โดยมิได้เกิดเหตุการณ์ร้าย แม้ว่าทางสกายเน็ต จะพยายามสังหารคอนเนอร์ถึงสองครั้ง เพื่อก่อสงครามกับมนุษย์ แต่มันเป็นความพยายามที่ล้มเหลวทั้งสองครั้ง ปัจจุบันนี้ด้วยวัย 25 ปี ของเขา คอนเนอร์ต้องใช้ชีวิตเฉกเช่นบุคคลหลุดกรอบใดๆ ไม่มีแม้กระทั่งบ้าน
ไม่มีเครดิตการ์ด ไม่มีโทรศัทพ์มือถือ กลายเป็นคนตกงาน และไม่มีประวัติชี้ว่า เขามีตัวตนอยู่จริง และ..ไม่มีทางที่จะเขาจะถูกคุกคามจากสกายเน็ท สุดยอดเครือข่ายเครื่องจักรสมองกล ที่ครั้งหนึ่งเคยหมายจะเด็ดหัวจอห์นและก่อสงครามกับเ หล่ามนุษยชาติ จนกระทั้ง... เมื่อถึงวันที่หุ่นยนต์นักฆ่าสายพันธุ์ใหม่ ที่มีอานุภาพการทำลายล้างสูงสุดเท่าที่เคยมีมา T-X (คริสเตนน่า โลเคน) ได้ก้าวออกมาจากเงาของโลกอนาคตและถูกส่งข้ามเวลากลับ มาอีกครั้ง เพื่อสะสางภารกิจเก่าที่ T-1000 หุ่นพิฆาตรุ่นก่อนไม่สามารถทำได้สำเร็จ เครื่องจักรสังหารรุ่นนี้ มีความบึกบึนทนทานพอๆ กับรูปลักษณ์ภายนอก ที่ดูเป็นมนุษย์สาวแสนสวยคล้ายคลึงกับมนุษย์อย่างยิ่ ง เธอทรงพลังมากกว่า อันตรายมากกว่า และมีอำนาจทำลายล้าง มากกว่าหุ่นยนต์สังหารทุกตัว ที่ถูกส่งมาก่อนหน้านี้ คอนเนอร์ไม่ใช่เป้าหมายหนึ่งเดียว ในบัญชีรายชื่อที่ต้องกำจัดทิ้งของสกายเน็ต แต่ยังมีสัตวแพทย์สาวที่ชื่อ เคต บรูว์สเตอร์ (แคลร์ เดนส์) ที่จะต้องได้เห็นอดีตอันแสนไกล และปัจจุบันที่กำลังสดใสของเธอ ต้องมาปะทะกับอนาคตที่คาดเดาไม่ถึง...ยกเว้นแต่เธอจะ สามารถรอดพ้นจากเงื้อม มือของ T-X ผู้ไร้เทียมทาน เมื่อคอนเนอร์และเคตรู้ตัวว่า วันพิพากษากำลังมุ่งหน้าเข้าหาเขาและเธอ และเหลือเวลาเพียงสามชั่วโมงเท่านั้น ระหว่างพวกเขากับจุดจบของโลก ความหวังเดียวที่จะรอดชีวิตไปได้ ก็คือการจำลองหุ่นไซบอร์กมือสังหาร T-101 (อาร์โนลด์ ชวาสเซเนเกอร์) อดีตหุ่นสังหารตัวต้นแบบ สุดลึกลับของคอนเนอร์ ที่บัดนี้ได้กลายเป็นหุ่นมือสังหารที่ตกรุ่นไปแล้ว แต่ทั้งหมดจะต้องเอาชนะ T-X สุดยอดนวัตกรรมเทคโนโลยีตัวใหม่ที่เหนือกว่า และเพื่อหาวิธีป้องกันวันพิพากษา... หรือเผชิญหน้ากับหายนะ ของความศิวิลัยซ์ที่พวกเรารู้จัก


General
Complete name : [Mini HD] Terminator.3.Rise.of.the.Machines.2003.BluRay.1080 p.DTS.x265.mkv
Format : Matroska
Format version : Version 4
File size : 3.22 GiB
Duration : 1 h 49 min
Overall bit rate : 4 226 kb/s
Movie name : [Mini HD] Terminator.3.Rise.of.the.Machines.2003.BluRay.1080 p.DTS.x265 - [email protected]
Encoded date : UTC 2021-06-18 01:34:07
Writing application : mkvmerge v45.0.0 ('Heaven in Pennies') 64-bit
Writing library : libebml v1.3.10 + libmatroska v1.5.2
Attachments : The Terminator 3 Rise Of The Machines (2003).jpg

Video
ID : 1
Format : HEVC
Format/Info : High Efficiency Video Coding
Format profile : Main [email protected]@Main
Codec ID : V_MPEGH/ISO/HEVC
Duration : 1 h 49 min
Bit rate : 2 001 kb/s
Width : 1 920 pixels
Height : 790 pixels
Display aspect ratio : 2.40:1
Frame rate mode : Constant
Frame rate : 23.976 (24000/1001) FPS
Color space : YUV
Chroma subsampling : 4:2:0
Bit depth : 10 bits
Bits/(Pixel*Frame) : 0.055
Stream size : 1.52 GiB (47%)
Writing library : x265 3.3+4-siambit.me-30eb4de83092:[Linux][GCC 8.3.1][64 bit] 10bit
Encoding settings : cpuid=1111039 / frame-threads=4 / wpp / no-pmode / no-pme / no-psnr / no-ssim / log-level=2 / input-csp=1 / input-res=1920x790 / interlace=0 / total-frames=0 / level-idc=0 / high-tier=1 / uhd-bd=0 / ref=4 / no-allow-non-conformance / no-repeat-headers / annexb / no-aud / no-hrd / info / hash=0 / no-temporal-layers / open-gop / min-keyint=23 / keyint=250 / gop-lookahead=0 / bframes=4 / b-adapt=2 / b-pyramid / bframe-bias=0 / rc-lookahead=25 / lookahead-slices=4 / scenecut=40 / hist-scenecut=0 / radl=0 / no-splice / no-intra-refresh / ctu=64 / min-cu-size=8 / rect / no-amp / max-tu-size=32 / tu-inter-depth=1 / tu-intra-depth=1 / limit-tu=0 / rdoq-level=2 / dynamic-rd=0.00 / no-ssim-rd / signh-i-d-e / no-tskip / nr-intra=0 / nr-inter=0 / no-constrained-intra / strong-intra-smoothing / max-merge=3 / limit-refs=3 / limit-modes / me=3 / subme=3 / merange=57 / temporal-mvp / no-frame-dup / no-hme / weightp / no-weightb / no-analyze-src-pics / deblock=0:0 / no-sao / no-sao-non-deblock / rd=4 / selective-sao=0 / no-early-skip / rskip / no-fast-intra / no-tskip-fast / no-cu-lossless / no-b-intra / no-splitrd-skip / rdpenalty=0 / psy-rd=2.00 / psy-rdoq=1.00 / no-rd-refine / no-lossless / cbqpoffs=0 / crqpoffs=0 / rc=abr / bitrate=2000 / qcomp=0.60 / qpstep=4 / stats-write=0 / stats-read=2 / cplxblur=20.0 / qblur=0.5 / ipratio=1.40 / pbratio=1.30 / aq-mode=3 / aq-strength=1.00 / cutree / zone-count=0 / no-strict-cbr / qg-size=32 / no-rc-grain / qpmax=69 / qpmin=0 / no-const-vbv / sar=1 / overscan=0 / videoformat=5 / range=0 / colorprim=2 / transfer=2 / colormatrix=2 / chromaloc=0 / display-window=0 / cll=0,0 / min-luma=0 / max-luma=1023 / log2-max-poc-lsb=8 / vui-timing-info / vui-hrd-info / slices=1 / no-opt-qp-pps / no-opt-ref-list-length-pps / no-multi-pass-opt-rps / scenecut-bias=0.05 / hist-threshold=0.01 / no-opt-cu-delta-qp / no-aq-motion / no-hdr10 / no-hdr10-opt / no-dhdr10-opt / no-idr-recovery-sei / analysis-reuse-level=0 / analysis-save-reuse-level=0 / analysis-load-reuse-level=0 / scale-factor=0 / refine-intra=0 / refine-inter=0 / refine-mv=1 / refine-ctu-distortion=0 / no-limit-sao / ctu-info=0 / no-lowpass-dct / refine-analysis-type=0 / copy-pic=1 / max-ausize-factor=1.0 / no-dynamic-refine / no-single-sei / no-hevc-aq / no-svt / no-field / qp-adaptation-range=1.00 / no-scenecut-aware-qpconformance-window-offsets / right=0 / bottom=0
Language : English
Default : Yes
Forced : No

Audio #1
ID : 2
Format : AC-3
Format/Info : Audio Coding 3
Commercial name : Dolby Digital
Codec ID : A_AC3
Duration : 1 h 49 min
Bit rate mode : Constant
Bit rate : 640 kb/s
Channel(s) : 6 channels
Channel layout : L R C LFE Ls Rs
Sampling rate : 48.0 kHz
Frame rate : 31.250 FPS (1536 SPF)
Bit depth : 16 bits
Compression mode : Lossy
Stream size : 499 MiB (15%)
Title : Thai AC-3
Language : Thai
Service kind : Complete Main
Default : Yes
Forced : No

Audio #2
ID : 3
Format : DTS
Format/Info : Digital Theater Systems
Codec ID : A_DTS
Duration : 1 h 49 min
Bit rate mode : Constant
Bit rate : 1 536 kb/s
Channel(s) : 6 channels
Channel layout : C L R Ls Rs LFE
Sampling rate : 48.0 kHz
Frame rate : 93.750 FPS (512 SPF)
Bit depth : 16 bits
Compression mode : Lossy
Stream size : 1.17 GiB (36%)
Title : Eng DTS
Language : English
Default : No
Forced : No

Text #1
ID : 4
Format : PGS
Muxing mode : zlib
Codec ID : S_HDMV/PGS
Codec ID/Info : Picture based subtitle format used on BDs/HD-DVDs
Duration : 1 h 39 min
Bit rate : 20.7 kb/s
Count of elements : 1548
Stream size : 14.8 MiB (0%)
Title : Thai PGS
Language : Thai
Default : Yes
Forced : No

Text #2
ID : 5
Format : PGS
Muxing mode : zlib
Codec ID : S_HDMV/PGS
Codec ID/Info : Picture based subtitle format used on BDs/HD-DVDs
Duration : 1 h 39 min
Bit rate : 20.7 kb/s
Count of elements : 1548
Stream size : 14.8 MiB (0%)
Title : Thai PGS Out
Language : Thai
Default : No
Forced : No

Text #3
ID : 6
Format : PGS
Muxing mode : zlib
Codec ID : S_HDMV/PGS
Codec ID/Info : Picture based subtitle format used on BDs/HD-DVDs
Duration : 1 h 39 min
Bit rate : 22.0 kb/s
Count of elements : 1470
Stream size : 15.8 MiB (0%)
Title : Eng PGS
Language : English
Default : No
Forced : No

Text #4
ID : 7
Format : PGS
Muxing mode : zlib
Codec ID : S_HDMV/PGS
Codec ID/Info : Picture based subtitle format used on BDs/HD-DVDs
Duration : 1 h 39 min
Bit rate : 22.0 kb/s
Count of elements : 1470
Stream size : 15.8 MiB (0%)
Title : Eng PGS Out
Language : English
Default : No
Forced : No

Text #5
ID : 8
Format : UTF-8
Codec ID : S_TEXT/UTF8
Codec ID/Info : UTF-8 Plain Text
Duration : 1 h 39 min
Bit rate : 31 b/s
Count of elements : 733
Stream size : 23.1 KiB (0%)
Title : Eng SRT
Language : English
Default : No
Forced : No

Menu
00:00:00.000 : en:My Name Is John Connor
00:05:49.015 : en:Weight of the Future
00:11:31.023 : en:T-X Arrives
00:20:28.685 : en:Humans in the Loop
00:26:22.205 : en:Terminator Arrives
00:32:34.494 : en:Quarries Subdued
00:38:21.757 : en:Recognition
00:43:56.258 : en:Pedal to the Metal
00:51:54.486 : en:You Must Live
00:57:42.250 : en:Multivehicular
01:05:54.492 : en:Target Acquired
01:10:55.417 : enemolition Derby
01:18:32.207 : en:Obsolete Design
01:24:56.674 : en:Talk to the Hand
01:31:43.831 : en:Supposed to Meet
01:39:22.873 : enon't Do That







xxxxxxxxxxxxxxxxxxxxxxxxxxxxxxxxxxxxxxxxxxxxxxxxxx xxxxxxx




The Terminator 4 Salvation (2009) มหาสงครามจักรกลล้างโลก

เรื่องย่อ
ปี 2018 วันอวสานโลกได้ผ่านมาและผ่านไป ทิ้งไว้เพียงซากอารยธรรมสมัยใหม่
กองทัพคนเหล็กได้คุกคามน่านฟ้าของโลกหลังวันหายนะ เพื่อสังหารและกำจัดมนุษย์ที่หลบซ่อนตัวอยู่ในเมืองร ้างและทะเลทราย
แต่กลุ่มผู้รอดชีวิตกลุ่มเล็กๆ ได้รวมตัวกันเป็นกลุ่มผู้ต่อต้าน ผู้หลบซ่อนอยู่ในบังเกอร์ใต้ดิน
และโจมตีกองกำลังศัตรูที่มีกำลังพลเหนือพวก เขาทุกเมื่อที่เป็นไปได้
ผู้ที่บงการคนเหล็กเหล่านี้คือสกายเน็ท เครือข่ายคอมพิวเตอร์อัจฉริยะ
ที่เริ่มมีความรู้สึกนึกคิดขึ้นมาตั้งแต่เมื่อ 14 ปีก่อนและเพียงเวลาชั่วพริบตา
มันก็ได้หักหลังผู้สร้างมันขึ้นมา และปลดปล่อยอาวุธนิวเคลียร์สู่โลกใบนี้ โดยไม่ทันให้ตั้งตัว
มีชายเพียงคนเดียวที่เห็นวันอวสานโลกคืบคลานเข้ามา ชายเพียงคนเดียว ผู้ซึ่งชะตากรรมของเขา
มักจะเกี่ยวพันถึงการคงอยู่ของมนุษยชาติเสมอ เขาก็คือ จอห์น คอนเนอร์ (คริสเตียน เบล)
บัดนี้ โลกกำลังจะก้าวสู่อนาคตที่คอนเนอร์ถูกพร่ำเตือนเสมอม าตลอดชีวิต
แต่ปัจจัยใหม่อย่างหนึ่งได้สั่นคลอนความเชื่อของเขาท ี่ว่ามนุษยชาติมีโอกาส ที่จะชนะสงครามครั้งนี้
นั่นก็คือการปรากฏตัวของ มาร์คัส ไรท์ (แซม เวิร์ธธิงตัน) คนแปลกหน้าจากอดีต
ผู้ซึ่งความทรงจำสุดท้ายของเขาคือการรับโทษประหารก่อ นที่จะลืมตาตื่นขึ้นมาในโลกใหม่ใบนี้
คอนเนอร์จะต้องตัดสินใจว่าเขาสามารถไว้วางใจมาร์คัสไ ด้หรือไม่ แต่เมื่อสกายเน็ทใช้กลยุทธใหม่เพื่อปราบกองกำลังต่อต ้านให้ราบคาบ
คอนเนอร์และมาร์คัสก็ต้องหาทางร่วมมือกันเพื่อยับยั้ งการสังหารโหด ด้วยการแฝงตัวเข้าไปในสกายเน็ทและชนกับศัตรูแบบจริงจ ัง



General
Complete name : [Mini HD] Terminator.4.Salvation.2009.DC.BluRay.1080p.DTS.x2 65.mkv
Format : Matroska
Format version : Version 4
File size : 3.45 GiB
Duration : 1 h 57 min
Overall bit rate : 4 197 kb/s
Movie name : [Mini HD] Terminator.4.Salvation.2009.DC.BluRay.1080p.DTS.x2 65 - [email protected]
Encoded date : UTC 2021-06-18 02:15:42
Writing application : mkvmerge v45.0.0 ('Heaven in Pennies') 64-bit
Writing library : libebml v1.3.10 + libmatroska v1.5.2
Attachments : The Terminator 4 Salvation (2009).jpg

Video
ID : 1
Format : HEVC
Format/Info : High Efficiency Video Coding
Format profile : Main [email protected]@Main
Codec ID : V_MPEGH/ISO/HEVC
Duration : 1 h 57 min
Bit rate : 1 999 kb/s
Width : 1 920 pixels
Height : 800 pixels
Display aspect ratio : 2.40:1
Frame rate mode : Constant
Frame rate : 23.976 (24000/1001) FPS
Color space : YUV
Chroma subsampling : 4:2:0
Bit depth : 10 bits
Bits/(Pixel*Frame) : 0.054
Stream size : 1.64 GiB (48%)
Writing library : x265 3.3+4-siambit.me-30eb4de83092:[Linux][GCC 8.3.1][64 bit] 10bit
Encoding settings : cpuid=1111039 / frame-threads=4 / wpp / no-pmode / no-pme / no-psnr / no-ssim / log-level=2 / input-csp=1 / input-res=1920x800 / interlace=0 / total-frames=0 / level-idc=0 / high-tier=1 / uhd-bd=0 / ref=4 / no-allow-non-conformance / no-repeat-headers / annexb / no-aud / no-hrd / info / hash=0 / no-temporal-layers / open-gop / min-keyint=23 / keyint=250 / gop-lookahead=0 / bframes=4 / b-adapt=2 / b-pyramid / bframe-bias=0 / rc-lookahead=25 / lookahead-slices=4 / scenecut=40 / hist-scenecut=0 / radl=0 / no-splice / no-intra-refresh / ctu=64 / min-cu-size=8 / rect / no-amp / max-tu-size=32 / tu-inter-depth=1 / tu-intra-depth=1 / limit-tu=0 / rdoq-level=2 / dynamic-rd=0.00 / no-ssim-rd / signh-i-d-e / no-tskip / nr-intra=0 / nr-inter=0 / no-constrained-intra / strong-intra-smoothing / max-merge=3 / limit-refs=3 / limit-modes / me=3 / subme=3 / merange=57 / temporal-mvp / no-frame-dup / no-hme / weightp / no-weightb / no-analyze-src-pics / deblock=0:0 / no-sao / no-sao-non-deblock / rd=4 / selective-sao=0 / no-early-skip / rskip / no-fast-intra / no-tskip-fast / no-cu-lossless / no-b-intra / no-splitrd-skip / rdpenalty=0 / psy-rd=2.00 / psy-rdoq=1.00 / no-rd-refine / no-lossless / cbqpoffs=0 / crqpoffs=0 / rc=abr / bitrate=2000 / qcomp=0.60 / qpstep=4 / stats-write=0 / stats-read=2 / cplxblur=20.0 / qblur=0.5 / ipratio=1.40 / pbratio=1.30 / aq-mode=3 / aq-strength=1.00 / cutree / zone-count=0 / no-strict-cbr / qg-size=32 / no-rc-grain / qpmax=69 / qpmin=0 / no-const-vbv / sar=1 / overscan=0 / videoformat=5 / range=0 / colorprim=2 / transfer=2 / colormatrix=2 / chromaloc=0 / display-window=0 / cll=0,0 / min-luma=0 / max-luma=1023 / log2-max-poc-lsb=8 / vui-timing-info / vui-hrd-info / slices=1 / no-opt-qp-pps / no-opt-ref-list-length-pps / no-multi-pass-opt-rps / scenecut-bias=0.05 / hist-threshold=0.01 / no-opt-cu-delta-qp / no-aq-motion / no-hdr10 / no-hdr10-opt / no-dhdr10-opt / no-idr-recovery-sei / analysis-reuse-level=0 / analysis-save-reuse-level=0 / analysis-load-reuse-level=0 / scale-factor=0 / refine-intra=0 / refine-inter=0 / refine-mv=1 / refine-ctu-distortion=0 / no-limit-sao / ctu-info=0 / no-lowpass-dct / refine-analysis-type=0 / copy-pic=1 / max-ausize-factor=1.0 / no-dynamic-refine / no-single-sei / no-hevc-aq / no-svt / no-field / qp-adaptation-range=1.00 / no-scenecut-aware-qpconformance-window-offsets / right=0 / bottom=0
Language : English
Default : Yes
Forced : No

Audio #1
ID : 2
Format : AC-3
Format/Info : Audio Coding 3
Commercial name : Dolby Digital
Codec ID : A_AC3
Duration : 1 h 57 min
Bit rate mode : Constant
Bit rate : 640 kb/s
Channel(s) : 6 channels
Channel layout : L R C LFE Ls Rs
Sampling rate : 48.0 kHz
Frame rate : 31.250 FPS (1536 SPF)
Bit depth : 16 bits
Compression mode : Lossy
Stream size : 539 MiB (15%)
Title : Thai AC-3
Language : Thai
Service kind : Complete Main
Default : Yes
Forced : No

Audio #2
ID : 3
Format : DTS
Format/Info : Digital Theater Systems
Codec ID : A_DTS
Duration : 1 h 57 min
Bit rate mode : Constant
Bit rate : 1 509 kb/s
Channel(s) : 6 channels
Channel layout : C L R Ls Rs LFE
Sampling rate : 48.0 kHz
Frame rate : 93.750 FPS (512 SPF)
Bit depth : 24 bits
Compression mode : Lossy
Stream size : 1.24 GiB (36%)
Title : Eng DTS
Language : English
Default : No
Forced : No

Text #1
ID : 4
Format : PGS
Muxing mode : zlib
Codec ID : S_HDMV/PGS
Codec ID/Info : Picture based subtitle format used on BDs/HD-DVDs
Duration : 1 h 47 min
Bit rate : 20.2 kb/s
Count of elements : 1690
Stream size : 15.5 MiB (0%)
Title : Thai PGS
Language : Thai
Default : Yes
Forced : No

Text #2
ID : 5
Format : PGS
Muxing mode : zlib
Codec ID : S_HDMV/PGS
Codec ID/Info : Picture based subtitle format used on BDs/HD-DVDs
Duration : 1 h 47 min
Bit rate : 20.2 kb/s
Count of elements : 1690
Stream size : 15.5 MiB (0%)
Title : Thai PGS Out
Language : Thai
Default : No
Forced : No

Text #3
ID : 6
Format : PGS
Muxing mode : zlib
Codec ID : S_HDMV/PGS
Codec ID/Info : Picture based subtitle format used on BDs/HD-DVDs
Duration : 1 h 47 min
Bit rate : 21.6 kb/s
Count of elements : 1596
Stream size : 16.6 MiB (0%)
Title : Eng PGS
Language : English
Default : No
Forced : No

Text #4
ID : 7
Format : PGS
Muxing mode : zlib
Codec ID : S_HDMV/PGS
Codec ID/Info : Picture based subtitle format used on BDs/HD-DVDs
Duration : 1 h 47 min
Bit rate : 21.6 kb/s
Count of elements : 1596
Stream size : 16.6 MiB (0%)
Title : Eng PGS Out
Language : English
Default : No
Forced : No

Text #5
ID : 8
Format : UTF-8
Codec ID : S_TEXT/UTF8
Codec ID/Info : UTF-8 Plain Text
Duration : 1 h 47 min
Bit rate : 31 b/s
Count of elements : 806
Stream size : 24.7 KiB (0%)
Title : Eng SRT
Language : English
Default : No
Forced : No

Text #6
ID : 9
Format : UTF-8
Codec ID : S_TEXT/UTF8
Codec ID/Info : UTF-8 Plain Text
Duration : 1 h 47 min
Bit rate : 38 b/s
Count of elements : 1029
Stream size : 30.0 KiB (0%)
Title : Eng SDH
Language : English
Default : No
Forced : No

Menu
00:00:00.000 : :Chapter 01
00:04:11.626 : :Chapter 02
00:14:43.757 : :Chapter 03
00:21:53.270 : :Chapter 04
00:29:56.377 : :Chapter 05
00:35:10.024 : :Chapter 06
00:41:51.717 : :Chapter 07
00:51:53.401 : :Chapter 08
00:58:35.553 : :Chapter 09
01:08:16.925 : :Chapter 10
01:17:40.738 : :Chapter 11
01:25:28.539 : :Chapter 12
01:33:14.004 : :Chapter 13
01:37:33.972 : :Chapter 14
01:41:38.216 : :Chapter 15
01:45:32.325 : :Chapter 16






1 http://www.filecondo.com/dl.php?f=S1b1b81Mhpu2
2 http://www.filecondo.com/dl.php?f=ffa50d1MhpGg
3 http://www.filecondo.com/dl.php?f=Q2164d1MhpNb
4 http://www.filecondo.com/dl.php?f=v86fbf1MhpYJ
5 http://www.filecondo.com/dl.php?f=e896041Mhq5p
6 http://www.filecondo.com/dl.php?f=175c501Mhqar