+ ตอบกลับกระทู้
สรุปผลการค้นหา 1 ถึง 2 จากทั้งหมด 2
  1. #1
    Administrators รูปส่วนตัว Duckload.us
    สมัครเมื่อ
    Dec 2010
    โพสต์
    150,746
    Thanks
    7
    Thanked 157,939 Times in 68,958 Posts

    Lightbulb [ฝรั่ง]-The Crow (1994) อีกาพญายม REMASTERED-Blu-ray.H.264.1080p. [Modified]-[พากย์ไทย บรรยายไทย]


    Quote:
    เมื่อวันที่ 30 ตุลาคมDevil’s Nightในเมืองดีทรอยต์จ่า Albrecht อยู่ในที่เกิดเหตุที่ Shelly Webster ถูกทุบตีและถูกข่มขืนและ Eric Draven คู่หมั้นของเธอนอนเสียชีวิตอยู่บนถนนหลังจากถูกแทงถู กยิงและโยนทิ้ง หน้าต่าง. ทั้งคู่วางแผนที่จะแต่งงานกันในวันรุ่งขึ้นวันฮาโลวี น ในขณะที่เขาออกจากโรงพยาบาลกับเชลลีอัลเบรชต์ได้พบกั บเด็กสาวซาราห์ซึ่งบอกว่าเธอเป็นเพื่อนของพวกเขาและพ วกเขาดูแลเธอ อัลเบรชต์บอกเธอว่าเชลลีกำลังจะตาย หนึ่งปีต่อมาอีกาตัวหนึ่งแตะบนหินหลุมศพของ Eric Draven เอริคตื่นขึ้นและปีนออกจากหลุมศพของเขา ในขณะเดียวกันแก๊งข้างถนนระดับล่างที่นำโดย T-Bird กำลังจุดไฟในเมือง เมื่อกลับไปที่อพาร์ทเมนต์เก่าของเขาซึ่งปัจจุบันถูก ทิ้งร้างเอริคพบกับเหตุการณ์ย้อนหลังของทีเบิร์ดและแ ก๊งของเขา (Tin Tin, Funboy และ Skank) ที่สังหารเขาและเชลลี ในไม่ช้าเอริคก็พบว่าบาดแผลใด ๆ ที่เขาได้รับการรักษาทันที เขาได้รับคำแนะนำจากอีกาเขาออกเดินทางเพื่อล้างแค้นใ ห้กับการฆาตกรรมของเขาและเชลลีโดยการสังหารผู้กระทำ



    General
    Format : Matroska
    Format version : Version 4
    File size : 9.37 GiB
    Duration : 1 h 41 min
    Overall bit rate : 13.2 Mb/s
    Movie name : The.Crow.1994.REMASTERED.1080p.BluRay.x264.DTS @Burin
    Encoded date : UTC 2021-08-13 03:30:46
    Writing application : mkvmerge v56.0.0 ('Strasbourg / St. Denis') 32-bit
    Writing library : libebml v1.4.2 + libmatroska v1.6.4
    Cover : Yes
    Attachments : small_cover.jpg / small_cover_land.jpg / cover.jpg / cover_land.jpg

    Video
    ID : 1
    Format : AVC
    Format/Info : Advanced Video Codec
    Format profile : [email protected]
    Format settings : CABAC / 4 Ref Frames
    Format settings, CABAC : Yes
    Format settings, Reference frames : 4 frames
    Codec ID : V_MPEG4/ISO/AVC
    Duration : 1 h 41 min
    Bit rate : 11.5 Mb/s
    Width : 1 920 pixels
    Height : 1 040 pixels
    Display aspect ratio : 1.85:1
    Frame rate mode : Constant
    Frame rate : 23.976 (24000/1001) FPS
    Color space : YUV
    Chroma subsampling : 4:2:0
    Bit depth : 8 bits
    Scan type : Progressive
    Bits/(Pixel*Frame) : 0.240
    Stream size : 8.18 GiB (87%)
    Title : The.Crow.1994.REMASTERED.1080p.BluRay.x264.DTS-FGT
    Writing library : x264 core 148 r2795M aaa9aa8
    Encoding settings : cabac=1 / ref=4 / deblock=1:-2:-2 / analyse=0x3:0x113 / me=umh / subme=9 / psy=1 / psy_rd=1.00:0.15 / mixed_ref=1 / me_range=16 / chroma_me=1 / trellis=2 / 8x8dct=1 / cqm=0 / deadzone=21,11 / fast_pskip=1 / chroma_qp_offset=-3 / threads=24 / lookahead_threads=3 / sliced_threads=0 / nr=0 / decimate=1 / interlaced=0 / bluray_compat=0 / constrained_intra=0 / bframes=3 / b_pyramid=2 / b_adapt=1 / b_bias=0 / direct=3 / weightb=1 / open_gop=0 / weightp=2 / keyint=250 / keyint_min=25 / scenecut=40 / intra_refresh=0 / rc_lookahead=50 / rc=2pass / mbtree=1 / bitrate=11500 / ratetol=1.0 / qcomp=0.60 / qpmin=0 / qpmax=69 / qpstep=4 / cplxblur=20.0 / qblur=0.5 / vbv_maxrate=31250 / vbv_bufsize=31250 / nal_hrd=none / filler=0 / ip_ratio=1.40 / aq=1:1.00
    Language : English
    Default : Yes
    Forced : No

    Audio #1
    ID : 2
    Format : DTS
    Format/Info : Digital Theater Systems
    Codec ID : A_DTS
    Duration : 1 h 41 min
    Bit rate mode : Constant
    Bit rate : 1 509 kb/s
    Channel(s) : 6 channels
    Channel layout : C L R Ls Rs LFE
    Sampling rate : 48.0 kHz
    Frame rate : 93.750 FPS (512 SPF)
    Bit depth : 24 bits
    Compression mode : Lossy
    Stream size : 1.07 GiB (11%)
    Title : The.Crow.1994.REMASTERED.1080p.BluRay.x264.DTS-FGT
    Language : English
    Default : No
    Forced : No

    Audio #2
    ID : 5
    Format : AAC LC
    Format/Info : Advanced Audio Codec Low Complexity
    Codec ID : A_AAC-2
    Duration : 1 h 41 min
    Bit rate : 160 kb/s
    Channel(s) : 2 channels
    Channel layout : L R
    Sampling rate : 48.0 kHz
    Frame rate : 46.875 FPS (1024 SPF)
    Compression mode : Lossy
    Stream size : 117 MiB (1%)
    Language : Thai
    Default : Yes
    Forced : No

    Text #1
    ID : 3
    Format : UTF-8
    Codec ID : S_TEXT/UTF8
    Codec ID/Info : UTF-8 Plain Text
    Duration : 1 h 33 min
    Bit rate : 42 b/s
    Count of elements : 873
    Stream size : 29.2 KiB (0%)
    Language : English
    Default : No
    Forced : No

    Text #2
    ID : 4
    Format : UTF-8
    Codec ID : S_TEXT/UTF8
    Codec ID/Info : UTF-8 Plain Text
    Duration : 1 h 33 min
    Bit rate : 91 b/s
    Count of elements : 822
    Stream size : 63.1 KiB (0%)
    Title : Sub Thai SRT
    Language : Thai
    Default : Yes
    Forced : No

    Menu
    00:00:00.000 : Chapter 1
    00:04:33.690 : Chapter 2
    00:16:57.558 : Chapter 3
    00:22:05.366 : Chapter 4
    00:35:27.000 : Chapter 5
    00:44:37.550 : Chapter 6
    00:48:41.043 : Chapter 7
    00:52:03.871 : Chapter 8
    00:59:43.997 : Chapter 9
    01:01:11.585 : Chapter 10
    01:02:34.000 : Chapter 11
    01:06:02.250 : Chapter 12
    01:07:16.950 : Chapter 13
    01:09:29.916 : Chapter 14
    01:17:58.465 : Chapter 15
    01:21:14.620 : Chapter 16
    01:32:55.779 : Chapter 17
    01:34:21.114 : Chapter 18

    http://www.filecondo.com/dl.php?f=iaf6e71MfHjW

  2. #2
    Member
    สมัครเมื่อ
    Nov 2014
    โพสต์
    88
    Thanks
    6
    Thanked 0 Times in 0 Posts
    ช่วยรีอัพเรื่องนี้ได้มั้ยครับ

+ ตอบกลับกระทู้

ข้อมูลกระทู้

Users Browsing this Thread

ในขณะนี้มี 1 ท่านดูกระทู้อยู่. (0 สมาชิกและ 1 ผู้เยี่ยมชม)

     

กฎการโพสต์ข้อความ

  • ท่าน ไม่สามารถ ตั้งกระทู้ใหม่ได้
  • ท่าน ไม่สามารถ ตอบกระทู้ได้
  • ท่าน ไม่สามารถ แนบไฟล์ได้
  • ท่าน ไม่สามารถ แก้ไขข้อความโพสต์ได้
  • BB code สถานะ เปิด
  • Smilies สถานะ เปิด
  • [IMG] สถานะ เปิด
  • HTML สถานะ ปิด