+ ตอบกลับกระทู้
สรุปผลการค้นหา 1 ถึง 4 จากทั้งหมด 4
  1. #1
    Administrators รูปส่วนตัว Duckload.us
    สมัครเมื่อ
    Dec 2010
    โพสต์
    131,531
    Thanks
    7
    Thanked 135,192 Times in 59,795 Posts

    Thumbs up [ฝรั่ง] - American Horror Story - Season 10 (2021) : Episode 01-04 1080p.HotStarTH.WEB-DL.DDP5.1.H.264 [ เสียงอังกฤษ 5.1 + บรรยายอังกฤษ - ไทย PGS,SRT จาก Disney+ Hotstar TH ]



    แหลมสะพรึง : นักเขียนตกอับพร้อมด้วยภรรยาที่กำลังตั้งครรภ์และลูก สาวย้ายไปยังเมืองชายหาดที่ห่างไกลในช่วงฤดูหนาว แต่กลับพบเรื่องราวสุดสะพรึง

    Format : Matroska
    Format version : Version 4
    File size : 1.22 GiB
    Duration : 49 min 48 s
    Overall bit rate : 3 515 kb/s
    Encoded date : UTC 2021-09-10 08:24:55
    Writing application : mkvmerge v26.0.0 ('In The Game') 64-bit
    Writing library : libebml v1.3.6 + libmatroska v1.4.9

    Video
    ID : 1
    Format : AVC
    Format/Info : Advanced Video Codec
    Format profile : [email protected]
    Format settings : CABAC / 4 Ref Frames
    Format settings, CABAC : Yes
    Format settings, Reference : 4 frames
    Codec ID : V_MPEG4/ISO/AVC
    Duration : 49 min 48 s
    Bit rate : 3 300 kb/s
    Width : 1 920 pixels
    Height : 1 080 pixels
    Display aspect ratio : 16:9
    Frame rate mode : Constant
    Frame rate : 23.976 (24000/1001) FPS
    Color space : YUV
    Chroma subsampling : 4:2:0
    Bit depth : 8 bits
    Scan type : Progressive
    Bits/(Pixel*Frame) : 0.066
    Stream size : 1.14 GiB (93%)
    Writing library : x264 core 155 r2917+2 f192430
    Encoding settings : cabac=1 / ref=4 / deblock=1:-1:-1 / analyse=0x3:0x113 / me=hex / subme=8 / psy=1 / psy_rd=1.00:0.15 / mixed_ref=1 / me_range=16 / chroma_me=1 / trellis=2 / 8x8dct=1 / cqm=0 / deadzone=21,11 / fast_pskip=1 / chroma_qp_offset=-3 / threads=14 / lookahead_threads=2 / sliced_threads=0 / nr=0 / decimate=1 / interlaced=0 / bluray_compat=0 / constrained_intra=0 / bframes=3 / b_pyramid=2 / b_adapt=2 / b_bias=0 / direct=3 / weightb=1 / open_gop=0 / weightp=2 / keyint=48 / keyint_min=25 / scenecut=0 / intra_refresh=0 / rc_lookahead=48 / rc=2pass / mbtree=1 / bitrate=3300 / ratetol=1.0 / qcomp=0.60 / qpmin=0 / qpmax=69 / qpstep=4 / cplxblur=20.0 / qblur=0.5 / vbv_maxrate=4950 / vbv_bufsize=6600 / nal_hrd=none / filler=0 / ip_ratio=1.40 / aq=3:1.00
    Language : English
    Default : Yes
    Forced : No
    Color range : Limited
    Color primaries : BT.709
    Transfer characteristics : BT.709
    Matrix coefficients : BT.709

    Audio
    ID : 2
    Format : E-AC-3
    Format/Info : Enhanced AC-3
    Commercial name : Dolby Digital Plus
    Codec ID : A_EAC3
    Duration : 49 min 48 s
    Bit rate mode : Constant
    Bit rate : 192 kb/s
    Channel(s) : 6 channels
    Channel layout : L R C LFE Ls Rs
    Sampling rate : 48.0 kHz
    Frame rate : 31.250 FPS (1536 SPF)
    Compression mode : Lossy
    Stream size : 68.4 MiB (5%)
    Title : English 5.1
    Language : English
    Service kind : Complete Main
    Default : Yes
    Forced : No

    Text #1
    ID : 3
    Format : UTF-8
    Codec ID : S_TEXT/UTF8
    Codec ID/Info : UTF-8 Plain Text
    Duration : 49 min 32 s
    Bit rate : 72 b/s
    Count of elements : 1027
    Stream size : 26.3 KiB (0%)
    Title : English SRT
    Language : English
    Default : No
    Forced : No

    Text #2
    ID : 4
    Format : UTF-8
    Codec ID : S_TEXT/UTF8
    Codec ID/Info : UTF-8 Plain Text
    Duration : 49 min 20 s
    Bit rate : 146 b/s
    Count of elements : 729
    Stream size : 53.1 KiB (0%)
    Title : Thai SRT - Kenobiiz @Siambit.me
    Language : Thai
    Default : No
    Forced : No

    Text #3
    ID : 5
    Format : PGS
    Codec ID : S_HDMV/PGS
    Codec ID/Info : Picture based subtitle format used on BDs/HD-DVDs
    Duration : 49 min 20 s
    Bit rate : 36.7 kb/s
    Count of elements : 1458
    Stream size : 13.0 MiB (1%)
    Title : Thai PGS - Kenobiiz @Siambit.me
    Language : Thai
    Default : Yes
    Forced : Yes




    Download:filecondo
    01 http://www.filecondo.com/dl.php?f=739f391MnTkt
    02 http://www.filecondo.com/dl.php?f=Ie08131MnTn1
    03 http://www.filecondo.com/dl.php?f=t5dfe81MoFxP
    04 http://www.filecondo.com/dl.php?f=lac26a1MraiU
    Download:cornfile
    01 https://www.cornfile.com/qrw0cnqyy4ys
    02 https://www.cornfile.com/3uzq67sl2a0n
    03 https://www.cornfile.com/m3ifgcrvl93r
    04 https://www.cornfile.com/cce3jjl17lu3

  2. The Following 2 Users Say Thank You to Duckload.us For This Useful Post:

    jackjangri (09-12-2021), virusring (09-08-2021)

  3. #2
    Member
    สมัครเมื่อ
    Jan 2016
    โพสต์
    85
    Thanks
    118
    Thanked 0 Times in 0 Posts
    รอเรื่องนี้อยู่เลยค่า ^^ ขอบคุณมากค่ะ

  4. #3
    Senior Member
    สมัครเมื่อ
    Jul 2013
    โพสต์
    2,712
    Thanks
    0
    Thanked 0 Times in 0 Posts
    ขอบคุณครับ

  5. #4
    Senior Member
    สมัครเมื่อ
    Jun 2011
    โพสต์
    336
    Thanks
    488
    Thanked 40 Times in 29 Posts
    ขอบคุณครับ

+ ตอบกลับกระทู้

ข้อมูลกระทู้

Users Browsing this Thread

ในขณะนี้มี 6 ท่านดูกระทู้อยู่. (0 สมาชิกและ 6 ผู้เยี่ยมชม)

     

กฎการโพสต์ข้อความ

  • ท่าน ไม่สามารถ ตั้งกระทู้ใหม่ได้
  • ท่าน ไม่สามารถ ตอบกระทู้ได้
  • ท่าน ไม่สามารถ แนบไฟล์ได้
  • ท่าน ไม่สามารถ แก้ไขข้อความโพสต์ได้
  • BB code สถานะ เปิด
  • Smilies สถานะ เปิด
  • [IMG] สถานะ เปิด
  • HTML สถานะ ปิด