นาโอะ นักเรียนม.3 ที่ต้องอยู่คนเดียวจนกว่าจะสำเร็จการศึกษา แต่ถูกบริษัทจัดหาที่อยู่โกงจนต้องมาอยู่ห้องเดียวกั บอุเอฮาระคุงซึ่งอยู่โรงเรียนเดียวกัน แล้วเมื่อเปิดเทอมใหม่เรื่องวุ่นๆ ก็เกิดขึ้น เป็นเรื่องของความรักที่ไม่หวือหวา เรียบง่าย เต็มไปด้วยความรู้สึกและรายละเอียด มีเรื่องตื่นเต้นให้ลุ้นอยู่เสมอ ติดตามเรื่องราวน่ารักๆของเขาและเธอได้ใน Good Morning Call อรุณสวัสดิ์ส่งรักมาทักทาย

Video
ID : 1
Format : AVC
Format/Info : Advanced Video Codec
Format profile : [email protected]
Format settings : CABAC / 3 Ref Frames
Format settings, CABAC : Yes
Format settings, Reference : 3 frames
Codec ID : V_MPEG4/ISO/AVC
Duration : 46 min 26 s
Bit rate : 2 679 kb/s
Width : 1 920 pixels
Height : 1 080 pixels
Display aspect ratio : 16:9
Frame rate mode : Constant
Frame rate : 29.970 (30000/1001) FPS
Color space : YUV
Chroma subsampling : 4:2:0
Bit depth : 8 bits
Scan type : Progressive
Bits/(Pixel*Frame) : 0.043
Stream size : 890 MiB (95%)
Default : Yes
Forced : No

Audio
ID : 2
Format : AAC LC SBR
Format/Info : Advanced Audio Codec Low Complexity with Spectral Band Replication
Commercial name : HE-AAC
Format settings : Explicit
Codec ID : A_AAC-2
Duration : 46 min 27 s
Bit rate : 128 kb/s
Channel(s) : 2 channels
Channel layout : L R
Sampling rate : 48.0 kHz
Frame rate : 23.438 FPS (2048 SPF)
Compression mode : Lossy
Stream size : 42.5 MiB (5%)
Language : Japanese
Default : Yes
Forced : No

Text
ID : 3
Format : ASS
Codec ID : S_TEXT/ASS
Codec ID/Info : Advanced Sub Station Alpha
Duration : 46 min 14 s
Bit rate : 137 b/s
Count of elements : 591
Compression mode : Lossless
Stream size : 46.6 KiB (0%)
Title : Thai spark edit
Language : Thai
Default : Yes
Forced : Yes






Good.Morning.Call.อรุณสวัสดิ์ส่งรักมาทักทาย.S02
01 http://www.filecondo.com/dl.php?f=x7dea31Momz1
02 http://www.filecondo.com/dl.php?f=4a0d1e1MomzX
03 http://www.filecondo.com/dl.php?f=Q3b51e1MomAU
04 http://www.filecondo.com/dl.php?f=ee84711MomBS
05 http://www.filecondo.com/dl.php?f=90c5071MomCQ
06 http://www.filecondo.com/dl.php?f=U2ca8a1MomDP
07 http://www.filecondo.com/dl.php?f=hb48b41MomEL
08 http://www.filecondo.com/dl.php?f=te62a51MomFL
09 http://www.filecondo.com/dl.php?f=Yf26c51MomGH
10 http://www.filecondo.com/dl.php?f=Ieb5f31MomHH

Good.Morning.Call.อรุณสวัสดิ์ส่งรักมาทักทาย.S01
01 http://www.filecondo.com/dl.php?f=Fc7e801Momiw
02 http://www.filecondo.com/dl.php?f=156af51Momjt
03 http://www.filecondo.com/dl.php?f=Kcda1a1Momkr
04 http://www.filecondo.com/dl.php?f=Y3ca9a1Momlp
05 http://www.filecondo.com/dl.php?f=Rb408e1Mommm
06 http://www.filecondo.com/dl.php?f=K0cf561Momnl
07 http://www.filecondo.com/dl.php?f=s29d861Momoj
08 http://www.filecondo.com/dl.php?f=c1f4111Mompg
09 http://www.filecondo.com/dl.php?f=u1822b1Momqf
10 http://www.filecondo.com/dl.php?f=h354d81Momrc
11 http://www.filecondo.com/dl.php?f=i5bc7e1Momsa
12 http://www.filecondo.com/dl.php?f=c262d21Momtc
13 http://www.filecondo.com/dl.php?f=k854b61Momub
14 http://www.filecondo.com/dl.php?f=4730ac1Momv6
15 http://www.filecondo.com/dl.php?f=d7bba11Momw3
16 http://www.filecondo.com/dl.php?f=j1c58a1Momx0
17 http://www.filecondo.com/dl.php?f=Be23551MomxZ