+ ͺѺз
ػšä 1 ֧ 3 ҡ 3
  1. #1
    Administrators ٻǹ Duckload.us
    Ѥ
    Dec 2010
    ʵ
    131,531
    Thanks
    7
    Thanked 135,192 Times in 59,795 Posts

    Thumbs up Malignant ԡṹ ⤵ (2021) HMAX WEBRip DD5 1 x264 [ҡ:ENG][SUB:,Eng][1080p] [Modified] ͹ѹ ⾸٧



    ͧ
    ͧǢͧ ѹ 赡ǡѺҵҡҾ˵ءóҵ شо֧ Фءҹ鹾Ҿѹҹ鹤ͤ 繨ԧѹҵ

    Format : Matroska
    Format version : Version 4
    File size : 6.72 GiB
    Duration : 1 h 51 min
    Overall bit rate mode : Variable
    Overall bit rate : 8 623 kb/s
    Movie name : Malignant (2021) ԡṹ ⤵ @Burin
    Encoded date : UTC 2021-09-11 06:22:03
    Writing application : mkvmerge v56.0.0 ('Strasbourg / St. Denis') 32-bit
    Writing library : libebml v1.4.2 + libmatroska v1.6.4

    Video
    ID : 1
    Format : AVC
    Format/Info : Advanced Video Codec
    Format profile : [email protected]
    Format settings : CABAC / 4 Ref Frames
    Format settings, CABAC : Yes
    Format settings, Reference frames : 4 frames
    Codec ID : V_MPEG4/ISO/AVC
    Duration : 1 h 51 min
    Bit rate mode : Variable
    Bit rate : 8 250 kb/s
    Maximum bit rate : 12.4 Mb/s
    Width : 1 920 pixels
    Height : 816 pixels
    Display aspect ratio : 2.35:1
    Frame rate mode : Constant
    Frame rate : 23.976 (24000/1001) FPS
    Color space : YUV
    Chroma subsampling : 4:2:0
    Bit depth : 8 bits
    Scan type : Progressive
    Bits/(Pixel*Frame) : 0.220
    Stream size : 6.42 GiB (96%)
    Writing library : x264 core 157 r2965 861cec4
    Encoding settings : cabac=1 / ref=4 / deblock=1:0:0 / analyse=0x3:0x113 / me=hex / subme=7 / psy=1 / psy_rd=1.00:0.00 / mixed_ref=1 / me_range=16 / chroma_me=1 / trellis=1 / 8x8dct=1 / cqm=0 / deadzone=21,11 / fast_pskip=1 / chroma_qp_offset=-2 / threads=25 / lookahead_threads=4 / sliced_threads=0 / nr=0 / decimate=1 / interlaced=0 / bluray_compat=0 / constrained_intra=0 / bframes=3 / b_pyramid=2 / b_adapt=1 / b_bias=0 / direct=1 / weightb=1 / open_gop=0 / weightp=2 / keyint=96 / keyint_min=96 / scenecut=40 / intra_refresh=0 / rc_lookahead=40 / rc=2pass / mbtree=1 / bitrate=8250 / ratetol=1.0 / qcomp=0.60 / qpmin=0 / qpmax=69 / qpstep=4 / cplxblur=20.0 / qblur=0.5 / vbv_maxrate=12375 / vbv_bufsize=6187 / nal_hrd=vbr / filler=0 / ip_ratio=1.40 / aq=1:1.00
    Default : Yes
    Forced : No
    Color range : Limited
    Color primaries : BT.709
    Transfer characteristics : BT.709
    Matrix coefficients : BT.709

    Audio
    ID : 2
    Format : AC-3
    Format/Info : Audio Coding 3
    Commercial name : Dolby Digital
    Codec ID : A_AC3
    Duration : 1 h 51 min
    Bit rate mode : Constant
    Bit rate : 384 kb/s
    Channel(s) : 6 channels
    Channel layout : L R C LFE Ls Rs
    Sampling rate : 48.0 kHz
    Frame rate : 31.250 FPS (1536 SPF)
    Compression mode : Lossy
    Stream size : 306 MiB (4%)
    Title : English
    Language : English
    Service kind : Complete Main
    Default : No
    Forced : No

    Text #1
    ID : 3
    Format : UTF-8
    Codec ID : S_TEXT/UTF8
    Codec ID/Info : UTF-8 Plain Text
    Duration : 1 h 45 min
    Bit rate : 33 b/s
    Count of elements : 963
    Stream size : 25.9 KiB (0%)
    Title : English
    Language : English
    Default : No
    Forced : No

    Text #2
    ID : 4
    Format : UTF-8
    Codec ID : S_TEXT/UTF8
    Codec ID/Info : UTF-8 Plain Text
    Duration : 1 h 47 min
    Bit rate : 45 b/s
    Count of elements : 1397
    Stream size : 35.8 KiB (0%)
    Title : English [SDH]
    Language : English
    Default : No
    Forced : No

    Text #3
    ID : 5
    Format : UTF-8
    Codec ID : S_TEXT/UTF8
    Codec ID/Info : UTF-8 Plain Text
    Duration : 1 h 45 min
    Bit rate : 34 b/s
    Count of elements : 961
    Stream size : 26.6 KiB (0%)
    Title : Spanish
    Language : Spanish
    Default : No
    Forced : No

    Text #4
    ID : 6
    Format : UTF-8
    Codec ID : S_TEXT/UTF8
    Codec ID/Info : UTF-8 Plain Text
    Duration : 1 h 47 min
    Bit rate : 43 b/s
    Count of elements : 1452
    Stream size : 34.3 KiB (0%)
    Title : Spanish [SDH]
    Language : Spanish
    Default : No
    Forced : No

    Text #5
    ID : 7
    Format : UTF-8
    Codec ID : S_TEXT/UTF8
    Codec ID/Info : UTF-8 Plain Text
    Duration : 1 h 46 min
    Bit rate : 80 b/s
    Count of elements : 906
    Stream size : 62.5 KiB (0%)
    Language : Thai
    Default : Yes
    Forced : No





    ͹ѹ ⾸٧
    Download:filecondo
    http://www.filecondo.com/dl.php?f=Hb05bb1MoYpe
    Download:cornfile
    https://www.cornfile.com/uq0t8xf6wftf

  2. The Following 3 Users Say Thank You to Duckload.us For This Useful Post:

    jackjangri (09-12-2021), Jodz14 (09-12-2021), noi54 (09-14-2021)

  3. #2
    Senior Member
    Ѥ
    Jun 2011
    ʵ
    336
    Thanks
    488
    Thanked 40 Times in 29 Posts
    thank you...

  4. #3
    Senior Member
    Ѥ
    Jul 2013
    ʵ
    2,712
    Thanks
    0
    Thanked 0 Times in 0 Posts
    ͺسѺ

+ ͺѺз

šз

Users Browsing this Thread

㹢й 1 ҹ١з. (0 Ҫԡ 1 )

     

ʵͤ

  • ҹ ö 駡з
  • ҹ ö ͺз
  • ҹ ö
  • ҹ ö 䢢ͤʵ