+ ตอบกลับกระทู้
สรุปผลการค้นหา 1 ถึง 4 จากทั้งหมด 4
  1. #1
    Administrators รูปส่วนตัว Duckload.us
    สมัครเมื่อ
    Dec 2010
    โพสต์
    139,860
    Thanks
    7
    Thanked 146,345 Times in 63,683 Posts

    Lightbulb [4K] [จีน]-Falling Into Your Smile (2021) รักยิ้มของเธอ Ep.01-31 จบ [4K][พากย์ไทย-ซับไทย]-WEB-DL.H.265.1080p. [Hi-def rip from Master]-[พากย์ไทย บรรยายไทย]



    แฟนคนแรกถูกแย่งชิงไปโดยเกม ถงเหยาเลยเซ็นสัญญากับทีม ZGDX สาบานว่าจะใช้ความสามารถของเธอพิสูจน์ว่าสาว ๆ ก็สามารถเล่นอีสปอร์ตได้ดีเช่นกัน ต่อมาเธอไม่เพียงแต่พิสูจน์ตัวเองอย่างแข็งแกร่ง ยังพัฒนาความสัมพันธ์กับกัปตันลู๋ซือเฉิงด้วย ท้ายที่สุด ในการแข่งขัน OPL ระดับประเทศ ถงเหยากับลู๋ซือเฉิงได้นำทีม ZGDX คว้าแชมป์ด้วย

    Video
    ID : 1
    Format : HEVC
    Format/Info : High Efficiency Video Coding
    Format profile : [email protected]@Main
    Codec ID : V_MPEGH/ISO/HEVC
    Duration : 54 min 8 s
    Bit rate : 6 332 kb/s
    Width : 3 840 pixels
    Height : 1 632 pixels
    Display aspect ratio : 2.35:1
    Frame rate mode : Constant
    Frame rate : 60.000 FPS
    Color space : YUV
    Chroma subsampling : 4:2:0
    Bit depth : 8 bits
    Bits/(Pixel*Frame) : 0.017
    Stream size : 2.39 GiB (92%)
    Default : Yes
    Forced : No
    Color range : Limited
    Color primaries : BT.709
    Transfer characteristics : BT.709
    Matrix coefficients : BT.709

    Audio #1
    ID : 7
    Format : AC-3
    Format/Info : Audio Coding 3
    Commercial name : Dolby Digital
    Codec ID : A_AC3
    Duration : 54 min 8 s
    Bit rate mode : Constant
    Bit rate : 320 kb/s
    Channel(s) : 2 channels
    Channel layout : L R
    Sampling rate : 44.1 kHz
    Frame rate : 28.711 FPS (1536 SPF)
    Compression mode : Lossy
    Stream size : 124 MiB (5%)
    Title : Thai Spark Edit
    Language : Thai
    Service kind : Complete Main
    Default : Yes
    Forced : No

    Audio #2
    ID : 8
    Format : AAC LC
    Format/Info : Advanced Audio Codec Low Complexity
    Codec ID : A_AAC-2
    Duration : 54 min 9 s
    Bit rate : 192 kb/s
    Channel(s) : 2 channels
    Channel layout : L R
    Sampling rate : 44.1 kHz
    Frame rate : 43.066 FPS (1024 SPF)
    Compression mode : Lossy
    Stream size : 73.4 MiB (3%)
    Title : Mandarin
    Language : Chinese
    Default : Yes
    Forced : No

    Text #1
    ID : 2
    Format : ASS
    Codec ID : S_TEXT/ASS
    Codec ID/Info : Advanced Sub Station Alpha
    Duration : 54 min 3 s
    Bit rate : 272 b/s
    Count of elements : 1262
    Compression mode : Lossless
    Stream size : 108 KiB (0%)
    Title : Thai Spark (Pc Yellow)
    Language : Thai
    Default : Yes
    Forced : Yes

    Text #2
    ID : 3
    Format : ASS
    Codec ID : S_TEXT/ASS
    Codec ID/Info : Advanced Sub Station Alpha
    Duration : 54 min 3 s
    Bit rate : 272 b/s
    Count of elements : 1262
    Compression mode : Lossless
    Stream size : 108 KiB (0%)
    Title : Thai Spark (Pc)
    Language : Thai
    Default : Yes
    Forced : No

    Text #3
    ID : 4
    Format : ASS
    Codec ID : S_TEXT/ASS
    Codec ID/Info : Advanced Sub Station Alpha
    Duration : 54 min 3 s
    Bit rate : 272 b/s
    Count of elements : 1262
    Compression mode : Lossless
    Stream size : 108 KiB (0%)
    Title : Thai Spark (TV)
    Language : Thai
    Default : Yes
    Forced : No

    Text #4
    ID : 5
    Format : ASS
    Codec ID : S_TEXT/ASS
    Codec ID/Info : Advanced Sub Station Alpha
    Duration : 54 min 3 s
    Bit rate : 272 b/s
    Count of elements : 1262
    Compression mode : Lossless
    Stream size : 108 KiB (0%)
    Title : Thai Spark (TV Yellow)
    Language : Thai
    Default : Yes
    Forced : No

    Text #5
    ID : 6
    Format : UTF-8
    Codec ID : S_TEXT/UTF8
    Codec ID/Info : UTF-8 Plain Text
    Duration : 54 min 3 s
    Bit rate : 204 b/s
    Count of elements : 1262
    Stream size : 80.8 KiB (0%)
    Title : Thai Spark (Srt)
    Language : Thai
    Default : Yes
    Forced : No



















    01 http://www.filecondo.com/dl.php?f=99ae821Mo02D
    02 http://www.filecondo.com/dl.php?f=X1db341Mo047
    03 http://www.filecondo.com/dl.php?f=5ea1861Mo04U
    04 http://www.filecondo.com/dl.php?f=r318941Mo05u
    05 http://www.filecondo.com/dl.php?f=y8c1a01Mo06q
    06 http://www.filecondo.com/dl.php?f=p49c0f1Mo07n
    07 http://www.filecondo.com/dl.php?f=6506971Mo08l
    08 http://www.filecondo.com/dl.php?f=I1ba5e1Mo09j
    09 http://www.filecondo.com/dl.php?f=ud26761Mo0aj
    10 http://www.filecondo.com/dl.php?f=Qaa51d1Mo0bi
    11 http://www.filecondo.com/dl.php?f=9ac1e01Mo0ci
    12 http://www.filecondo.com/dl.php?f=Ne0df61Mo0de
    13 http://www.filecondo.com/dl.php?f=S4265e1Mo0ef
    14 http://www.filecondo.com/dl.php?f=z8b6521Mo0fe
    15 http://www.filecondo.com/dl.php?f=g721e11Mo0gK
    16 http://www.filecondo.com/dl.php?f=ve3acc1Mo0ha
    17 http://www.filecondo.com/dl.php?f=l137a61Mo0i4
    18 http://www.filecondo.com/dl.php?f=ka48401Mo0j2
    19 http://www.filecondo.com/dl.php?f=ca1fd51Mo0k1
    20 http://www.filecondo.com/dl.php?f=He25811Mo0l2
    21 http://www.filecondo.com/dl.php?f=8e5e531Mo0lW
    22 http://www.filecondo.com/dl.php?f=J36b9f1Mo0n0
    23 http://www.filecondo.com/dl.php?f=Y037bc1Mo0nT
    24 http://www.filecondo.com/dl.php?f=V2fcc21Mo0oQ
    25 http://www.filecondo.com/dl.php?f=q753571Mo0pP
    26 http://www.filecondo.com/dl.php?f=U0dfac1Mo0qL
    27 http://www.filecondo.com/dl.php?f=Lddf6e1Mo0rM
    28 http://www.filecondo.com/dl.php?f=xbdfb91Mo0sM
    29 http://www.filecondo.com/dl.php?f=Z2fada1Mo0tI
    30 http://www.filecondo.com/dl.php?f=W031151Mo0uH
    31 http://www.filecondo.com/dl.php?f=O8b4fd1Mo0vR

  2. The Following User Says Thank You to Duckload.us For This Useful Post:

    alyssachia08 (11-20-2021)

  3. #2
    Senior Member รูปส่วนตัว B-Faii
    สมัครเมื่อ
    Oct 2012
    ที่อยู่
    THAILAND
    โพสต์
    1,370
    Thanks
    1,587
    Thanked 0 Times in 0 Posts
    ลองโหลด 2 Ep แรก เปิดดูแล้วภาพมันแตกอ่ะค่ะ ดูไม่ได้เลย

  4. #3
    Senior Member
    สมัครเมื่อ
    Sep 2012
    โพสต์
    155
    Thanks
    2
    Thanked 0 Times in 0 Posts
    ช่วยอัพเรื่องนี้ใหม่ด้วยได้ไหมคะ ไฟล์โหลดไม่ได้แล้วค่ะ

  5. #4
    Senior Member
    สมัครเมื่อ
    Sep 2012
    โพสต์
    155
    Thanks
    2
    Thanked 0 Times in 0 Posts
    แอดมินคะ รบกวนช่วยลงเรื่องนี้ให้ใหม่อีกรอบด้วยเถอะค่ะ เข้ามาแจ้งเป็นรอบที่ 2 แล้วก็ยังโหลดไม่ได้เลย

+ ตอบกลับกระทู้

ข้อมูลกระทู้

Users Browsing this Thread

ในขณะนี้มี 1 ท่านดูกระทู้อยู่. (0 สมาชิกและ 1 ผู้เยี่ยมชม)

     

กฎการโพสต์ข้อความ

  • ท่าน ไม่สามารถ ตั้งกระทู้ใหม่ได้
  • ท่าน ไม่สามารถ ตอบกระทู้ได้
  • ท่าน ไม่สามารถ แนบไฟล์ได้
  • ท่าน ไม่สามารถ แก้ไขข้อความโพสต์ได้
  • BB code สถานะ เปิด
  • Smilies สถานะ เปิด
  • [IMG] สถานะ เปิด
  • HTML สถานะ ปิด