+ ตอบกลับกระทู้
สรุปผลการค้นหา 1 ถึง 6 จากทั้งหมด 6
  1. #1
    Administrators รูปส่วนตัว Duckload.us
    สมัครเมื่อ
    Dec 2010
    โพสต์
    133,606
    Thanks
    7
    Thanked 137,706 Times in 60,816 Posts

    Lightbulb [เกาหลี]-[Netflix] Squid Game (2021) สควิดเกม เล่นลุ้นตาย [เสียง:เกาหลี-ไทย AC-3 5.1][บรรยาย: ไทย PGS Netflix]-WEB-DL.H.264.1080p. [From HD-TV]-[พากย์ไทย บรรยายไทย]




    กลุ่มคนถังแตกหลายสิบคนรับคำเชิญปริศนาให้เข้าร่วมเล ่นเกมที่ออกแบบตามการละเล่นสุดโปรดของเด็กๆ ทว่าเมื่อก้าวเข้ามาแล้ว เดิมพันที่ต้องจ่ายอาจหมายถึงชีวิต

    Video
    ID : 1
    Format : AVC
    Format/Info : Advanced Video Codec
    Format profile : [email protected]
    Format settings : CABAC / 4 Ref Frames
    Format settings, CABAC : Yes
    Format settings, Reference fra : 4 frames
    Codec ID : V_MPEG4/ISO/AVC
    Duration : 59 min 42 s
    Bit rate mode : Variable
    Bit rate : 2 492 kb/s
    Maximum bit rate : 20.0 Mb/s
    Width : 1 920 pixels
    Height : 1 080 pixels
    Display aspect ratio : 16:9
    Frame rate mode : Constant
    Frame rate : 23.976 (24000/1001) FPS
    Color space : YUV
    Chroma subsampling : 4:2:0
    Bit depth : 8 bits
    Scan type : Progressive
    Bits/(Pixel*Frame) : 0.050
    Stream size : 1.04 GiB (66%)
    Writing library : x264 core 148 r2724 dbe0335
    Encoding settings : cabac=1 / ref=4 / deblock=1:0:0 / analyse=0x3:0x111 / me=umh / subme=10 / psy=1 / psy_rd=1.00:0.00 / mixed_ref=1 / me_range=120 / chroma_me=1 / trellis=2 / 8x8dct=1 / cqm=0 / deadzone=21,11 / fast_pskip=1 / chroma_qp_offset=-2 / threads=6 / lookahead_threads=1 / sliced_threads=0 / nr=0 / decimate=1 / interlaced=0 / bluray_compat=0 / stitchable=1 / constrained_intra=0 / bframes=16 / b_pyramid=2 / b_adapt=2 / b_bias=0 / direct=3 / weightb=1 / open_gop=0 / weightp=2 / keyint=240 / keyint_min=121 / scenecut=0 / intra_refresh=0 / rc_lookahead=240 / rc=crf / mbtree=1 / crf=21.0 / qcomp=0.50 / qpmin=6 / qpmax=51 / qpstep=4 / vbv_maxrate=20000 / vbv_bufsize=25000 / crf_max=0.0 / nal_hrd=vbr / filler=0 / ip_ratio=1.40 / aq=1:0.80
    Default : Yes
    Forced : No

    Audio #1
    ID : 2
    Format : E-AC-3
    Format/Info : Enhanced AC-3
    Commercial name : Dolby Digital Plus
    Codec ID : A_EAC3
    Duration : 59 min 42 s
    Bit rate mode : Constant
    Bit rate : 640 kb/s
    Channel(s) : 6 channels
    Channel layout : L R C LFE Ls Rs
    Sampling rate : 48.0 kHz
    Frame rate : 31.250 FPS (1536 SPF)
    Compression mode : Lossy
    Stream size : 273 MiB (17%)
    Title : [AC-3-Korean]
    Language : Korean
    Service kind : Complete Main
    Default : No
    Forced : No

    Audio #2
    ID : 3
    Format : E-AC-3
    Format/Info : Enhanced AC-3
    Commercial name : Dolby Digital Plus
    Codec ID : A_EAC3
    Duration : 59 min 42 s
    Bit rate mode : Constant
    Bit rate : 640 kb/s
    Channel(s) : 6 channels
    Channel layout : L R C LFE Ls Rs
    Sampling rate : 48.0 kHz
    Frame rate : 31.250 FPS (1536 SPF)
    Compression mode : Lossy
    Stream size : 273 MiB (17%)
    Title : [AC-3-Thai]
    Language : Thai
    Service kind : Complete Main
    Default : Yes
    Forced : No

    Text #1
    ID : 4
    Format : PGS
    Muxing mode : zlib
    Codec ID : S_HDMV/PGS
    Codec ID/Info : Picture based subtitle format used on BDs/HD-DVDs
    Duration : 58 min 6 s
    Bit rate : 686 b/s
    Count of elements : 46
    Stream size : 292 KiB (0%)
    Title : [Thai Netflix Forced PGS]
    Language : Thai
    Default : Yes
    Forced : No

    Text #2
    ID : 5
    Format : PGS
    Muxing mode : zlib
    Codec ID : S_HDMV/PGS
    Codec ID/Info : Picture based subtitle format used on BDs/HD-DVDs
    Duration : 58 min 6 s
    Bit rate : 21.1 kb/s
    Count of elements : 1284
    Stream size : 8.77 MiB (1%)
    Title : [Thai Netflix PGS]
    Language : Thai
    Default : No
    Forced : No






    1 http://www.filecondo.com/dl.php?f=C56a8e1Mry9T
    2 http://www.filecondo.com/dl.php?f=c458d91MrybO
    3 http://www.filecondo.com/dl.php?f=K367191MrycG
    4 http://www.filecondo.com/dl.php?f=M11def1Mryew
    5 http://www.filecondo.com/dl.php?f=p2fdf61Mryfw
    6 http://www.filecondo.com/dl.php?f=Fcdc301Mrygy
    7 http://www.filecondo.com/dl.php?f=gcd2431MryhA
    8 http://www.filecondo.com/dl.php?f=q538281Mryij
    9 http://www.filecondo.com/dl.php?f=4c0a601MryjC

  2. The Following 4 Users Say Thank You to Duckload.us For This Useful Post:

    jangska (01-19-2022), kappa (09-29-2021), thatsna4555555 (09-24-2021), whiteherbie (10-02-2021)

  3. #2
    Senior Member
    สมัครเมื่อ
    Jul 2012
    โพสต์
    7,821
    Thanks
    0
    Thanked 0 Times in 0 Posts
    ขอบคุณมากจ้า

  4. #3
    Member
    สมัครเมื่อ
    Jun 2018
    โพสต์
    68
    Thanks
    0
    Thanked 0 Times in 0 Posts
    ขอบคุณมากๆครับ

  5. #4
    Senior Member
    สมัครเมื่อ
    Dec 2011
    โพสต์
    2,684
    Thanks
    241
    Thanked 0 Times in 0 Posts
    เห็นว่ากำลังโด่งดังเลยหนังเรื่องนี้ ขอบคุณนะคะ ที่เอามาให้ดูกัน

  6. #5
    Junior Member
    สมัครเมื่อ
    Nov 2017
    โพสต์
    1
    Thanks
    6
    Thanked 0 Times in 0 Posts
    โหลดไม่ได้แก้ไขหน่อนนะครับ ขอบคุณครับ

  7. #6
    Junior Member
    สมัครเมื่อ
    Oct 2016
    โพสต์
    18
    Thanks
    1
    Thanked 0 Times in 0 Posts
    filecondo โหลดไม่ได้ครับ รบกวนแก้ไขให้ด้วยครับ ขอบคุณครับ
    ช่วงนี้ serv เเลจะปัญหาเยอะ เป็นกำลังใจให้แอดมินเน้อ ^^

+ ตอบกลับกระทู้

ข้อมูลกระทู้

Users Browsing this Thread

ในขณะนี้มี 1 ท่านดูกระทู้อยู่. (0 สมาชิกและ 1 ผู้เยี่ยมชม)

     

กฎการโพสต์ข้อความ

  • ท่าน ไม่สามารถ ตั้งกระทู้ใหม่ได้
  • ท่าน ไม่สามารถ ตอบกระทู้ได้
  • ท่าน ไม่สามารถ แนบไฟล์ได้
  • ท่าน ไม่สามารถ แก้ไขข้อความโพสต์ได้
  • BB code สถานะ เปิด
  • Smilies สถานะ เปิด
  • [IMG] สถานะ เปิด
  • HTML สถานะ ปิด