+ ตอบกลับกระทู้
สรุปผลการค้นหา 1 ถึง 3 จากทั้งหมด 3
  1. #1
    Administrators รูปส่วนตัว Duckload.us
    สมัครเมื่อ
    Dec 2010
    โพสต์
    132,355
    Thanks
    7
    Thanked 135,959 Times in 60,119 Posts

    Thumbs up [ฝรั่ง] - Star Wars Visions (2021) Complete Season 1 [ Premiere ] - 1080p.WEB-DL [ เสียงญี่ปุ่น + เสียงอังกฤษ + พากย์ไทย 5.1 ] ● [ บรรยายไทย + อังกฤษ PGS,SRT ] จาก Disney+ Hotstar TH





    Format : Matroska
    Format version : Version 4
    File size : 789 MiB
    Duration : 13 min 1 s
    Overall bit rate mode : Variable
    Overall bit rate : 8 474 kb/s
    Encoded date : UTC 2021-09-22 15:42:05
    Writing application : mkvmerge v20.0.0 ('I Am The Sun') 64-bit
    Writing library : libebml v1.3.5 + libmatroska v1.4.8

    Video
    ID : 1
    Format : AVC
    Format/Info : Advanced Video Codec
    Format profile : [email protected]
    Format settings : CABAC / 4 Ref Frames
    Format settings, CABAC : Yes
    Format settings, Reference : 4 frames
    Codec ID : V_MPEG4/ISO/AVC
    Duration : 13 min 1 s
    Bit rate mode : Variable
    Bit rate : 7 754 kb/s
    Maximum bit rate : 12.7 Mb/s
    Width : 1 920 pixels
    Height : 1 080 pixels
    Display aspect ratio : 16:9
    Frame rate mode : Constant
    Frame rate : 24.000 FPS
    Color space : YUV
    Chroma subsampling : 4:2:0
    Bit depth : 8 bits
    Scan type : Progressive
    Bits/(Pixel*Frame) : 0.156
    Stream size : 722 MiB (92%)
    Language : English
    Default : Yes
    Forced : No
    Color range : Limited
    Color primaries : BT.709
    Transfer characteristics : BT.709
    Matrix coefficients : BT.709

    Audio #1
    ID : 2
    Format : E-AC-3
    Format/Info : Enhanced AC-3
    Commercial name : Dolby Digital Plus
    Codec ID : A_EAC3
    Duration : 13 min 1 s
    Bit rate mode : Constant
    Bit rate : 256 kb/s
    Channel(s) : 6 channels
    Channel layout : L R C LFE Ls Rs
    Sampling rate : 48.0 kHz
    Frame rate : 31.250 FPS (1536 SPF)
    Compression mode : Lossy
    Stream size : 23.8 MiB (3%)
    Title : Japanese 5.1
    Language : Japanese
    Service kind : Complete Main
    Default : No
    Forced : No

    Audio #2
    ID : 3
    Format : E-AC-3
    Format/Info : Enhanced AC-3
    Commercial name : Dolby Digital Plus
    Codec ID : A_EAC3
    Duration : 13 min 1 s
    Bit rate mode : Constant
    Bit rate : 256 kb/s
    Channel(s) : 6 channels
    Channel layout : L R C LFE Ls Rs
    Sampling rate : 48.0 kHz
    Frame rate : 31.250 FPS (1536 SPF)
    Compression mode : Lossy
    Stream size : 23.8 MiB (3%)
    Title : English 5.1
    Language : English
    Service kind : Complete Main
    Default : No
    Forced : No

    Audio #3
    ID : 4
    Format : E-AC-3
    Format/Info : Enhanced AC-3
    Commercial name : Dolby Digital Plus
    Codec ID : A_EAC3
    Duration : 12 min 59 s
    Bit rate mode : Constant
    Bit rate : 192 kb/s
    Channel(s) : 6 channels
    Channel layout : L R C LFE Ls Rs
    Sampling rate : 48.0 kHz
    Frame rate : 31.250 FPS (1536 SPF)
    Compression mode : Lossy
    Delay relative to video : 8 ms
    Stream size : 17.8 MiB (2%)
    Title : Thai 5.1 - Disney+ Hotstar TH @Kenobiiz
    Language : Thai
    Service kind : Complete Main
    Default : Yes
    Forced : No

    Text #1
    ID : 5
    Format : UTF-8
    Codec ID : S_TEXT/UTF8
    Codec ID/Info : UTF-8 Plain Text
    Duration : 10 min 44 s
    Bit rate : 29 b/s
    Count of elements : 76
    Stream size : 2.32 KiB (0%)
    Title : English SRT
    Language : English
    Default : No
    Forced : No

    Text #2
    ID : 6
    Format : UTF-8
    Codec ID : S_TEXT/UTF8
    Codec ID/Info : UTF-8 Plain Text
    Duration : 12 min 44 s
    Bit rate : 56 b/s
    Count of elements : 75
    Stream size : 5.24 KiB (0%)
    Title : Thai SRT
    Language : Thai
    Default : No
    Forced : No

    Text #3
    ID : 7
    Format : PGS
    Codec ID : S_HDMV/PGS
    Codec ID/Info : Picture based subtitle format used on BDs/HD-DVDs
    Duration : 12 min 44 s
    Bit rate : 13.8 kb/s
    Count of elements : 150
    Stream size : 1.25 MiB (0%)
    Title : Thai PGS
    Language : Thai
    Default : No
    Forced : No

    Menu
    00:00:11.833 : Intro
    00:00:19.375 : Scene 1
    00:12:49.083 : Credits







    Download:filecondo
    Star.Wars.Visions.S01E09.Akakiri.1080p.DSNP.WEB-DL.DDP5.1.H.264.TH.mkv
    http://www.filecondo.com/dl.php?f=G1249e1Mtlq1
    Star.Wars.Visions.S01E08.Lop.and.Ocho.1080p.DSNP.W EB-DL.DDP5.1.H.264.TH.mkv
    http://www.filecondo.com/dl.php?f=dbe83b1Mtlo2
    Star.Wars.Visions.S01E07.The.Elder.1080p.DSNP.WEB-DL.DDP5.1.H.264.TH.mkv
    http://www.filecondo.com/dl.php?f=G87e621Mtljq
    Star.Wars.Visions.S01E06.T0-B1.1080p.DSNP.WEB-DL.DDP5.1.H.264.TH.mkv
    http://www.filecondo.com/dl.php?f=Ve8b2d1MtleJ
    Star.Wars.Visions.S01E05.The.Ninth.Jedi.1080p.DSNP .WEB-DL.DDP5.1.H.264.TH.mkv
    http://www.filecondo.com/dl.php?f=704aea1MtldS
    Star.Wars.Visions.S01E04.The.Village.Bride.1080p.D SNP.WEB-DL.DDP5.1.H.264.TH.mkv
    http://www.filecondo.com/dl.php?f=Wb168c1MtlaB
    Star.Wars.Visions.S01E03.The.Twins.1080p.DSNP.WEB-DL.DDP5.1.H.264.TH.mkv
    http://www.filecondo.com/dl.php?f=Sf71431Mtl7s
    Star.Wars.Visions.S01E02.Tatooine.Rhapsody.1080p.D SNP.WEB-DL.DDP5.1.H.264.TH.mkv
    http://www.filecondo.com/dl.php?f=Baebed1Mtl3v
    Star.Wars.Visions.S01E01.The.Duel.1080p.DSNP.WEB-DL.DDP5.1.H.264.TH.mkv
    http://www.filecondo.com/dl.php?f=12e70c1Mtl0L

    Download:cornfile
    Star.Wars.Visions.S01E01.The.Duel.1080p.DSNP.WEB-DL.DDP5.1.H.264.TH.mkv - 789.3 MB
    Star.Wars.Visions.S01E02.Tatooine.Rhapsody.1080p.D SNP.WEB-DL.DDP5.1.H.264.TH.mkv - 615.3 MB
    Star.Wars.Visions.S01E03.The.Twins.1080p.DSNP.WEB-DL.DDP5.1.H.264.TH.mkv - 900.5 MB
    Star.Wars.Visions.S01E04.The.Village.Bride.1080p.D SNP.WEB-DL.DDP5.1.H.264.TH.mkv - 739.2 MB
    Star.Wars.Visions.S01E05.The.Ninth.Jedi.1080p.DSNP .WEB-DL.DDP5.1.H.264.TH.mkv - 895.6 MB
    Star.Wars.Visions.S01E06.T0-B1.1080p.DSNP.WEB-DL.DDP5.1.H.264.TH.mkv - 624.4 MB
    Star.Wars.Visions.S01E07.The.Elder.1080p.DSNP.WEB-DL.DDP5.1.H.264.TH.mkv - 735.8 MB
    Star.Wars.Visions.S01E08.Lop.and.Ocho.1080p.DSNP.W EB-DL.DDP5.1.H.264.TH.mkv - 1.0 GB
    Star.Wars.Visions.S01E09.Akakiri.1080p.DSNP.WEB-DL.DDP5.1.H.264.TH.mkv - 570.2 MB

  2. The Following 3 Users Say Thank You to Duckload.us For This Useful Post:

    aemjan (09-23-2021), gozilla02 (09-23-2021), thatsna4555555 (09-24-2021)

  3. #2
    Junior Member
    สมัครเมื่อ
    Feb 2016
    โพสต์
    2
    Thanks
    0
    Thanked 0 Times in 0 Posts
    filecondo จะโหลดได้ตอนไหนครับ
    แก้ไขครั้งล่าสุดโดย frozenkrong : 09-23-2021 เมื่อ 09:19 PM

  4. #3
    Senior Member
    สมัครเมื่อ
    Jul 2013
    โพสต์
    2,789
    Thanks
    0
    Thanked 0 Times in 0 Posts
    เพิ่งโหลดเสร็จเลยครับ

+ ตอบกลับกระทู้

ข้อมูลกระทู้

Users Browsing this Thread

ในขณะนี้มี 1 ท่านดูกระทู้อยู่. (0 สมาชิกและ 1 ผู้เยี่ยมชม)

     

กฎการโพสต์ข้อความ

  • ท่าน ไม่สามารถ ตั้งกระทู้ใหม่ได้
  • ท่าน ไม่สามารถ ตอบกระทู้ได้
  • ท่าน ไม่สามารถ แนบไฟล์ได้
  • ท่าน ไม่สามารถ แก้ไขข้อความโพสต์ได้
  • BB code สถานะ เปิด
  • Smilies สถานะ เปิด
  • [IMG] สถานะ เปิด
  • HTML สถานะ ปิด