+ ตอบกลับกระทู้
สรุปผลการค้นหา 1 ถึง 4 จากทั้งหมด 4
  1. #1
    Administrators รูปส่วนตัว Duckload.us
    สมัครเมื่อ
    Dec 2010
    โพสต์
    132,379
    Thanks
    7
    Thanked 135,975 Times in 60,128 Posts

    Thumbs up [ฝรั่ง]-Reminiscence.ล้วงอดีตรำลึกเวลา.2021.1080p.WEB-DL.x264-THA-[พากย์ไทยมาสเตอร์ 5.1+อังกฤษ 5.1 - บรรยายไทย+อังกฤษ]-WEB-DL.H.264.1080p. [Modified]-[พากย์ไทย บรรยายไทย]





    ซับไทย : อนันต์ โพธิสูง

    General
    Unique ID : 40013737743122686770657044040717280260 (0x1E1A5D96097C6D5BBC68BE134645A404)
    Complete name : Reminiscence.2021.1080p.WEB-DL.x264.mkv
    Format : Matroska
    Format version : Version 4
    File size : 2.52 GiB
    Duration : 1 h 55 min
    Overall bit rate : 3 118 kb/s
    Movie name : Reminiscence.2021
    Encoded date : UTC 2021-10-07 04:23:03
    Writing application : mkvmerge v61.0.0 ('So') 64-bit
    Writing library : libebml v1.4.2 + libmatroska v1.6.4
    Cover : Yes
    Attachments : cover

    Video
    ID : 1
    Format : AVC
    Format/Info : Advanced Video Codec
    Format profile : [email protected]
    Format settings : CABAC / 4 Ref Frames
    Format settings, CABAC : Yes
    Format settings, Reference : 4 frames
    Codec ID : V_MPEG4/ISO/AVC
    Duration : 1 h 55 min
    Bit rate : 2 500 kb/s
    Width : 1 920 pixels
    Height : 804 pixels
    Display aspect ratio : 2.40:1
    Frame rate mode : Constant
    Frame rate : 23.976 (23976/1000) FPS
    Color space : YUV
    Chroma subsampling : 4:2:0
    Bit depth : 8 bits
    Scan type : Progressive
    Bits/(Pixel*Frame) : 0.068
    Stream size : 2.02 GiB (80%)
    Title : Reminiscence.2021
    Writing library : x264 core 152 r2851M ba24899
    Encoding settings : cabac=1 / ref=4 / deblock=1:-1:-1 / analyse=0x3:0x113 / me=umh / subme=9 / psy=1 / psy_rd=1.00:0.15 / mixed_ref=1 / me_range=24 / chroma_me=1 / trellis=2 / 8x8dct=1 / cqm=0 / deadzone=21,11 / fast_pskip=1 / chroma_qp_offset=-3 / threads=32 / lookahead_threads=4 / sliced_threads=0 / nr=0 / decimate=1 / interlaced=0 / bluray_compat=0 / constrained_intra=0 / bframes=3 / b_pyramid=2 / b_adapt=2 / b_bias=0 / direct=3 / weightb=1 / open_gop=0 / weightp=2 / keyint=250 / keyint_min=25 / scenecut=40 / intra_refresh=0 / rc_lookahead=50 / rc=2pass / mbtree=1 / bitrate=2500 / ratetol=1.0 / qcomp=0.60 / qpmin=0 / qpmax=69 / qpstep=4 / cplxblur=20.0 / qblur=0.5 / vbv_maxrate=31250 / vbv_bufsize=31250 / nal_hrd=none / filler=0 / ip_ratio=1.40 / aq=3:1.00
    Language : English
    Default : Yes
    Forced : No

    Audio #1
    ID : 2
    Format : AAC LC
    Format/Info : Advanced Audio Codec Low Complexity
    Codec ID : A_AAC-2
    Duration : 1 h 55 min
    Bit rate : 374 kb/s
    Channel(s) : 6 channels
    Channel layout : C L R Ls Rs LFE
    Sampling rate : 48.0 kHz
    Frame rate : 46.875 FPS (1024 SPF)
    Compression mode : Lossy
    Delay relative to video : -43 ms
    Stream size : 310 MiB (12%)
    Title : Thai 5.1
    Language : Thai
    Default : Yes
    Forced : No

    Audio #2
    ID : 3
    Format : AAC LC
    Format/Info : Advanced Audio Codec Low Complexity
    Codec ID : A_AAC-2
    Duration : 1 h 55 min
    Bit rate : 224 kb/s
    Channel(s) : 6 channels
    Channel layout : C L R Ls Rs LFE
    Sampling rate : 48.0 kHz
    Frame rate : 46.875 FPS (1024 SPF)
    Compression mode : Lossy
    Delay relative to video : -43 ms
    Stream size : 186 MiB (7%)
    Title : English 5.1
    Language : English
    Default : No
    Forced : No

    Text #1
    ID : 4
    Format : PGS
    Muxing mode : zlib
    Codec ID : S_HDMV/PGS
    Codec ID/Info : Picture based subtitle format used on BDs/HD-DVDs
    Duration : 1 h 48 min
    Bit rate : 32.7 kb/s
    Count of elements : 2838
    Stream size : 25.4 MiB (1%)
    Title : Thai PGS : อนันต์ โพธิสูง
    Language : Thai
    Default : Yes
    Forced : No

    Text #2
    ID : 5
    Format : UTF-8
    Codec ID : S_TEXT/UTF8
    Codec ID/Info : UTF-8 Plain Text
    Duration : 1 h 47 min
    Bit rate : 52 b/s
    Count of elements : 1436
    Stream size : 41.5 KiB (0%)
    Title : English SRT
    Language : English
    Default : No
    Forced : No






    Download:filecondo
    Reminiscence.2021.1080p.WEB-DL.x264.mkv - 2.5 GB
    Reminiscence.2021.1080p.WEBRip.x264_GOLD CUP.mkv - 4.0 GB
    Download:cornfile
    Reminiscence.2021.1080p.WEB-DL.x264.mkv - 2.5 GB
    Reminiscence.2021.1080p.WEBRip.x264_GOLD CUP.mkv - 4.0 GB

  2. The Following 3 Users Say Thank You to Duckload.us For This Useful Post:

    Jodz14 (10-07-2021), noi54 (10-08-2021), sawara (10-07-2021)

  3. #2
    Senior Member
    สมัครเมื่อ
    Jul 2013
    โพสต์
    2,790
    Thanks
    0
    Thanked 0 Times in 0 Posts
    ขอบคุรครับ

  4. #3
    Senior Member
    สมัครเมื่อ
    Dec 2013
    โพสต์
    520
    Thanks
    457
    Thanked 0 Times in 0 Posts
    ขอบคุณครับบ

  5. #4
    Senior Member
    สมัครเมื่อ
    Jul 2012
    โพสต์
    7,712
    Thanks
    0
    Thanked 0 Times in 0 Posts
    ขอบคุณมากจ้า

+ ตอบกลับกระทู้

ข้อมูลกระทู้

Users Browsing this Thread

ในขณะนี้มี 1 ท่านดูกระทู้อยู่. (0 สมาชิกและ 1 ผู้เยี่ยมชม)

     

กฎการโพสต์ข้อความ

  • ท่าน ไม่สามารถ ตั้งกระทู้ใหม่ได้
  • ท่าน ไม่สามารถ ตอบกระทู้ได้
  • ท่าน ไม่สามารถ แนบไฟล์ได้
  • ท่าน ไม่สามารถ แก้ไขข้อความโพสต์ได้
  • BB code สถานะ เปิด
  • Smilies สถานะ เปิด
  • [IMG] สถานะ เปิด
  • HTML สถานะ ปิด