+ ตอบกลับกระทู้
สรุปผลการค้นหา 1 ถึง 2 จากทั้งหมด 2
  1. #1
    Administrators รูปส่วนตัว Duckload.us
    สมัครเมื่อ
    Dec 2010
    โพสต์
    132,379
    Thanks
    7
    Thanked 135,975 Times in 60,128 Posts

    Lightbulb [ฝรั่ง]-[New Series] La Brea (2021) Season 1 EP.1-3 [เสียง:อังกฤษ AC-3 5.1][บรรยาย: ไทย PGS และ อังกฤษ SRT]-WEB-DL.H.264.1080p. [From HD-TV]-[Soundtrack บรรยายไทย]




    เรื่องย่อ
    การผจญภัยครั้งยิ่งใหญ่เริ่มต้นขึ้นเมื่อหลุมยุบขนาด ใหญ่เปิดขึ้นในใจกลางลอสแองเจลิส ดึงผู้คนหลายร้อยคนและอาคารต่างๆ เข้าสู่ส่วนลึก บรรดาผู้ที่ตกหลุมพรางพบว่าตัวเองอยู่ในดินแดนดึกดำบ รรพ์ที่ลึกลับและอันตราย ซึ่งพวกเขาไม่มีทางเลือกอื่นนอกจากต้องร่วมมือกันเพื ่อเอาชีวิตรอด ในขณะเดียวกัน ผู้คนทั่วโลกต่างพยายามทำความเข้าใจกับสิ่งที่เกิดขึ ้นอย่างสิ้นหวัง ในการค้นหาคำตอบ ครอบครัวหนึ่งที่หายนะจากหายนะจะต้องไขความลับของเหต ุการณ์ที่อธิบายไม่ได้นี้ เพื่อหาทางกลับมาหากัน


    Video
    ID : 1
    Format : AVC
    Format/Info : Advanced Video Codec
    Format profile : [email protected]
    Format settings, CABAC : Yes
    Format settings, RefFrames : 4 frames
    Codec ID : V_MPEG4/ISO/AVC
    Duration : 42 min 49 s
    Bit rate mode : Constant
    Bit rate : 8 807 kb/s
    Nominal bit rate : 10 000 kb/s
    Width : 1 920 pixels
    Height : 1 080 pixels
    Display aspect ratio : 16:9
    Frame rate mode : Constant
    Frame rate : 23.976 (24000/1001) FPS
    Color space : YUV
    Chroma subsampling : 4:2:0
    Bit depth : 8 bits
    Scan type : Progressive
    Bits/(Pixel*Frame) : 0.177
    Stream size : 2.63 GiB (93%)
    Default : Yes
    Forced : No
    Color range : Limited
    Color primaries : BT.709
    Transfer characteristics : BT.709
    Matrix coefficients : BT.709

    Audio
    ID : 2
    Format : E-AC-3
    Format/Info : Enhanced Audio Coding 3
    Format settings, Endianness : Big
    Codec ID : A_EAC3
    Duration : 42 min 49 s
    Bit rate mode : Constant
    Bit rate : 640 kb/s
    Channel(s) : 6 channels
    Channel positions : Front: L C R, Side: L R, LFE
    Sampling rate : 48.0 kHz
    Frame rate : 187.500 FPS (256 SPF)
    Compression mode : Lossy
    Stream size : 196 MiB (7%)
    Title : [English-AC-3]
    Language : English
    Service kind : Complete Main
    Default : Yes
    Forced : No

    Text #1
    ID : 3
    Format : PGS
    Muxing mode : zlib
    Codec ID : S_HDMV/PGS
    Codec ID/Info : Picture based subtitle format used on BDs/HD-DVDs
    Duration : 42 min 13 s
    Bit rate : 58.8 kb/s
    Count of elements : 1368
    Stream size : 17.7 MiB (1%)
    Title : [Thai HBO PGS]
    Language : Thai
    Default : Yes
    Forced : No

    Text #2
    ID : 4
    Format : UTF-8
    Codec ID : S_TEXT/UTF8
    Codec ID/Info : UTF-8 Plain Text
    Duration : 42 min 1 s
    Bit rate : 73 b/s
    Count of elements : 870
    Stream size : 22.6 KiB (0%)
    Title : English (SDH)
    Language : English
    Default : No
    Forced : No






    1 http://www.filecondo.com/dl.php?f=z255401MyxQK
    2 http://www.filecondo.com/dl.php?f=pfc2b11MyxRU
    3 http://www.filecondo.com/dl.php?f=f201d01MBpa3

  2. #2
    Junior Member
    สมัครเมื่อ
    Apr 2021
    โพสต์
    2
    Thanks
    0
    Thanked 0 Times in 0 Posts
    ขอเรื่องนี้ ใน cornfile หน่อยได้ไหมครับ

+ ตอบกลับกระทู้

ข้อมูลกระทู้

Users Browsing this Thread

ในขณะนี้มี 1 ท่านดูกระทู้อยู่. (0 สมาชิกและ 1 ผู้เยี่ยมชม)

     

กฎการโพสต์ข้อความ

  • ท่าน ไม่สามารถ ตั้งกระทู้ใหม่ได้
  • ท่าน ไม่สามารถ ตอบกระทู้ได้
  • ท่าน ไม่สามารถ แนบไฟล์ได้
  • ท่าน ไม่สามารถ แก้ไขข้อความโพสต์ได้
  • BB code สถานะ เปิด
  • Smilies สถานะ เปิด
  • [IMG] สถานะ เปิด
  • HTML สถานะ ปิด