+ ตอบกลับกระทู้
สรุปผลการค้นหา 1 ถึง 3 จากทั้งหมด 3
  1. #1
    Administrators รูปส่วนตัว Duckload.us
    สมัครเมื่อ
    Dec 2010
    โพสต์
    133,236
    Thanks
    7
    Thanked 136,886 Times in 60,528 Posts

    Thumbs up [ฝรั่ง] Fast & Furious 9 (F9) (2021) เร็ว แรงทะลุนรก 9 DIRECTOR'S CUT version [พากย์:อังกฤษ/ไทย มาสเตอร์][SUB:ไทย/อังกฤษ][1080p]



    ในภาคนี้ จะเล่าถึง ดอม โทเร็ตโต (วิน ดีเซล) ได้ออกมาใช้ชีวิตอย่างสงบพร้อมกับเลตตี้ และไบรอัน ลูกชาย แต่ก็ต้องมีเหตุให้ทีมซิ่งต้องกลับมารวมตัวอีกครั้ง เพื่อหยุดแผนการของ “เจคอบ” (จอห์น ซีนา จาก The Suicide Squad) น้องชายของดอมที่หายตัวไปนานนับสิบๆปี รวมไปถึง ฮาน ซึล-โอ (ซุงกัง) ที่กลับมาจากความตายอย่างปริศนา! โดยในภาคที่ 9 จะเป็นเหตุการณ์ที่ต่อจากภาคแยก Hobbs & Shaw ตรงๆอีกด้วย
    นักแสดงที่กลับมาในภาคนี้ประกอบด้วยมิเชลล์ รอดดริเกซ, ไทริส กิ๊บสัน, คริส “ลูดาคริส” บริดเจส, จอร์ดานา บริวสเตอร์, นาตาลี เอมมานูเอล, ซง คัง, สองนักแสดงรางวัลออสการ์ เฮเลน มิร์เรน และชาร์ลิซ เธอรอน นอกจากนี้ ยังได้คาร์ดี บี ซุปเปอร์สตาร์เจ้าของรางวัลแกรมมี่ มารับบท เลซ่า หญิงสาวผู้มีอดีตเชื่อมโยงกับดอม และโอซูนา ก็มาเป็นนักแสดงรับเชิญในภาคนี้ด้วย Fast & Furious 9 อำนวยการสร้างโดย นีล เอช.มอริทซ์, วิน ดีเซล, เจฟฟ์ เคอร์เชนบอม, โจ รอธ, จัสติน ลิน, เคลย์ตัน ทาวน์เซนต์, ซาแมนธา วินเซนต์

    Format : Matroska
    Format version : Version 4
    File size : 5.01 GiB
    Duration : 2 h 29 min
    Overall bit rate : 4 780 kb/s
    Movie name : F9.The.Fast.Saga.2021.1080p.BR.H264.DTS.AAC.DIRECT OR'S CUT version_©GOLD CUP™_WWW.TT-TORRENT.COM

    Video
    ID : 1
    Format : AVC
    Format/Info : Advanced Video Codec
    Format profile : [email protected]
    Format settings : CABAC / 4 Ref Frames
    Format settings, CABAC : Yes
    Format settings, Reference : 4 frames
    Codec ID : V_MPEG4/ISO/AVC
    Duration : 2 h 29 min
    Bit rate : 2 500 kb/s
    Width : 1 920 pixels
    Height : 804 pixels
    Display aspect ratio : 2.40:1
    Frame rate mode : Constant
    Frame rate : 23.976 (23976/1000) FPS
    Color space : YUV
    Chroma subsampling : 4:2:0
    Bit depth : 8 bits
    Scan type : Progressive
    Bits/(Pixel*Frame) : 0.068
    Stream size : 2.62 GiB (52%)
    Title : F9.The.Fast.Saga.2021.1080p.BR.H264.DTS.AAC.DIRECT OR'S CUT version_©GOLD CUP™
    Writing library : x264 core 152 r2851M ba24899
    Language : English
    Default : Yes
    Forced : No

    Audio #1
    ID : 2
    Format : AAC LC
    Format/Info : Advanced Audio Codec Low Complexity
    Codec ID : A_AAC-2
    Duration : 2 h 29 min
    Bit rate : 224 kb/s
    Channel(s) : 6 channels
    Channel layout : C L R Ls Rs LFE
    Sampling rate : 48.0 kHz
    Frame rate : 46.875 FPS (1024 SPF)
    Compression mode : Lossy
    Delay relative to video : -43 ms
    Stream size : 240 MiB (5%)
    Title : En.AAC_224 kbs.6 channels
    Language : English
    Default : Yes
    Forced : No

    Audio #2
    ID : 3
    Format : AAC LC
    Format/Info : Advanced Audio Codec Low Complexity
    Codec ID : A_AAC-2
    Duration : 2 h 29 min
    Bit rate : 384 kb/s
    Channel(s) : 6 channels
    Channel layout : C L R Ls Rs LFE
    Sampling rate : 48.0 kHz
    Frame rate : 46.875 FPS (1024 SPF)
    Compression mode : Lossy
    Delay relative to video : -43 ms
    Stream size : 412 MiB (8%)
    Title : Th.AAC_365 kbs.6 channels
    Language : Thai
    Default : Yes
    Forced : No

    Audio #3
    ID : 4
    Format : DTS
    Format/Info : Digital Theater Systems
    Codec ID : A_DTS
    Duration : 2 h 29 min
    Bit rate mode : Constant
    Bit rate : 661 kb/s
    Channel(s) : 6 channels
    Channel layout : C L R Ls Rs LFE
    Sampling rate : 8 000 Hz
    Frame rate : 7.813 FPS (1024 SPF)
    Bit depth : 16 bits
    Compression mode : Lossy
    Delay relative to video : -43 ms
    Stream size : 709 MiB (14%)
    Title : En.DTS.5.1_Sample Rate 8000
    Language : English
    Default : Yes
    Forced : No

    Audio #4
    ID : 5
    Format : DTS
    Format/Info : Digital Theater Systems
    Codec ID : A_DTS
    Duration : 2 h 29 min
    Bit rate mode : Constant
    Bit rate : 992 kb/s
    Channel(s) : 6 channels
    Channel layout : C L R Ls Rs LFE
    Sampling rate : 12.0 kHz
    Frame rate : 11.719 FPS (1024 SPF)
    Bit depth : 16 bits
    Compression mode : Lossy
    Delay relative to video : -43 ms
    Stream size : 1.04 GiB (21%)
    Title : Th.DTS.5.1_Sample Rate 12000
    Language : Thai
    Default : Yes
    Forced : No

    Text #1
    ID : 6
    Format : VobSub
    Muxing mode : zlib
    Codec ID : S_VOBSUB
    Codec ID/Info : Picture based subtitle format used on DVDs
    Duration : 2 h 19 min
    Bit rate : 8 891 b/s
    Count of elements : 1487
    Stream size : 8.87 MiB (0%)
    Title : Th.Vob.2.100.90.White
    Language : Thai
    Default : Yes
    Forced : No

    Text #2
    ID : 7
    Format : VobSub
    Muxing mode : zlib
    Codec ID : S_VOBSUB
    Codec ID/Info : Picture based subtitle format used on DVDs
    Duration : 2 h 22 min
    Bit rate : 11.7 kb/s
    Count of elements : 1677
    Stream size : 12.0 MiB (0%)
    Title : EN.120.2.85.Red
    Language : English
    Default : No
    Forced : No

    Text #3
    ID : 8
    Format : VobSub
    Muxing mode : zlib
    Codec ID : S_VOBSUB
    Codec ID/Info : Picture based subtitle format used on DVDs
    Duration : 2 h 23 min
    Bit rate : 14.1 kb/s
    Count of elements : 2040
    Stream size : 14.5 MiB (0%)
    Title : EN.SDH.120.2.85.Yellow
    Language : English
    Default : No
    Forced : No





    Download:filecondo
    http://www.filecondo.com/dl.php?f=7015571MDcTj
    Download:cornfile
    https://www.cornfile.com/y4ptza2vnkn4

  2. The Following 6 Users Say Thank You to Duckload.us For This Useful Post:

    bigbang06 (10-21-2021), kappa (10-21-2021), noi54 (10-21-2021), sawara (10-20-2021), Tellmon (10-21-2021), Wesker_TOT (10-22-2021)

  3. #2
    Senior Member
    สมัครเมื่อ
    Mar 2011
    โพสต์
    1,374
    Thanks
    0
    Thanked 0 Times in 0 Posts
    ขอบคุณครับ

  4. #3
    Senior Member
    สมัครเมื่อ
    Dec 2013
    โพสต์
    3,356
    Thanks
    5,266
    Thanked 0 Times in 0 Posts
    ขอบคุณครับ...

+ ตอบกลับกระทู้

ข้อมูลกระทู้

Users Browsing this Thread

ในขณะนี้มี 1 ท่านดูกระทู้อยู่. (0 สมาชิกและ 1 ผู้เยี่ยมชม)

     

กฎการโพสต์ข้อความ

  • ท่าน ไม่สามารถ ตั้งกระทู้ใหม่ได้
  • ท่าน ไม่สามารถ ตอบกระทู้ได้
  • ท่าน ไม่สามารถ แนบไฟล์ได้
  • ท่าน ไม่สามารถ แก้ไขข้อความโพสต์ได้
  • BB code สถานะ เปิด
  • Smilies สถานะ เปิด
  • [IMG] สถานะ เปิด
  • HTML สถานะ ปิด