+ ตอบกลับกระทู้
สรุปผลการค้นหา 1 ถึง 3 จากทั้งหมด 3
  1. #1
    Administrators รูปส่วนตัว Duckload.us
    สมัครเมื่อ
    Dec 2010
    โพสต์
    151,817
    Thanks
    7
    Thanked 158,780 Times in 69,420 Posts

    Lightbulb [เกาหลี]-[Hellbound ทัณฑ์นรก ยูอาอิน, พัคจองมิน, คิมฮยอนจู, วอนจินอา, ยางอิกจุน TH Ep.1-6/End]-WEB-DL.H.264.1080p. [From HD-TV]-[Sound:Thai/Korea]-[Sub:Thai]




    ซีรี่ย์เกาหลี: Hellbound
    ชื่อภาษาไทย: ทัณฑ์นรก
    ประเภท: แฟนตาซี, สยองขวัญ, ระทึกขวัญ, ดราม่า
    จำนวนตอน: 6
    นำแสดงโดย: ยูอาอิน, พัคจองมิน, คิมฮยอนจู, วอนจินอา, ยางอิกจุน
    ผู้กำกับ: ยอนซังโฮ (จาก Train to Busan)
    เขียนบทโดย: ยอนซังโฮ, ชเวกยูซอก
    ออกอากาศทางสถานีโทรทัศน์: Netflix
    เริ่มออกอากาศ: 19 พฤศจิกายน 2564
    เวลาออกอากาศ: 15:00 น.
    นักแสดง:
    ยูอาอิน รับบท จองจินซู
    พัคจองมิน รับบท แบยองแจ
    คิมฮยอนจู รับบท มินเฮจิน
    วอนจินอา รับบท ซงโซฮยอน
    ยางอิกจุน รับบท จินคยองฮุน
    คิมโดยุน รับบท สมาชิกกลุ่มฮวาซาลชอก
    คิมชินรอก รับบท พัคจองจา
    รยูคยองซู รับบท บาทหลวงยูจี
    อีเร รับบท จินฮีจอง
    Synopsis: ผู้คนต่างได้ยินเรื่องราวการทำนายเกี่ยวกับการตายของ พวกเขา แล้วเมื่อเวลานั้นมาถึง...เทวทูตจะปรากฏตัวขึ้นมาต่อ หน้าและลากพวกเขาลงไปเบื้องล่าง! จองจินซู เขาดำรงตำแหน่งเป็นผู้นำลัทธิใหม่ ที่มีชื่อว่า 'แซจินริฮวี' เขาได้เอ่ยถึงปรากฏการณ์ประหลาดที่เกิดขึ้น เมื่อเทวทูตแห่งความตายได้โผล่ขึ้นมากับการอ้างข้อคว ามจากพระผู้เป็นเจ้า กลายเป็นพรสวรรค์อันแสนลึกลับและน่าเกรงขามของเขา ในขณะที่ แบยองแจ เป็นทีมงานผู้สร้างรายการโทรทัศน์ที่พยายามขุดรากและ เปิดโปงความลับของพวกลัทธิแซจินฮวีให้สังคมได้รับรู้ แต่ปรากฏว่า ซงโซฮยอน ภรรยาของเขา กลับเผชิญหน้ากับความเจ็บปวดทางภาวะอารมณ์อย่างรุนแร ง ที่กำลังให้เธอรับมือกับสิ่งไม่ไหว ทางฝั่งของ มินเฮจิน นักกฎหมายสาวที่ยืดหยัดต่อสู้กับกลุ่มฮวาซาลชอก ที่มีสมาชิกของลัทธิประหลาดร่วมอยู่ด้วย เช่นเดียวกับ จินคยองฮุน ตำรวจสายสืบที่กำลังพิศวงกับคดีที่พัวพันกับเทวทูตแห ่งความตาย พวกเขาทั้งหมดได้ถูกเชื่อมโยงให้มาเกี่ยวข้องกับสถาน การณ์อันเหลือเชื่อบนความเชื่อที่เหนือธรรมชาติ และยากที่จะพิสูจน์ในครั้งนี้ มาติดตามชมกันได้ในซีรีย์เกาหลี “Hellbound ทัณฑ์นรก”
    Credit: franky

    General
    Unique ID : 246710095339703275968466297894972919359 (0xB99AA2D2307F9D361E215494345F8E3F)
    Complete name : F:Hellbound ทัณฑ์นรกHellbound.2021.S01E05.1080p.NF.WEB-DL.DDP5.1.Atmos.x264.mkv
    Format : Matroska
    Format version : Version 4
    File size : 2.22 GiB
    Duration : 55 min 7 s
    Overall bit rate mode : Variable
    Overall bit rate : 5 758 kb/s
    Encoded date : UTC 2021-11-19 11:37:31
    Writing application : mkvmerge v19.0.0 ('Brave Captain') 64-bit
    Writing library : libebml v1.3.5 + libmatroska v1.4.8

    Video
    ID : 1
    Format : AVC
    Format/Info : Advanced Video Codec
    Format profile : High@L4
    Format settings : CABAC / 4 Ref Frames
    Format settings, CABAC : Yes
    Format settings, Reference fra : 4 frames
    Codec ID : V_MPEG4/ISO/AVC
    Duration : 55 min 6 s
    Bit rate mode : Variable
    Bit rate : 4 332 kb/s
    Maximum bit rate : 20.0 Mb/s
    Width : 1 920 pixels
    Height : 1 080 pixels
    Display aspect ratio : 16:9
    Frame rate mode : Constant
    Frame rate : 23.976 (24000/1001) FPS
    Color space : YUV
    Chroma subsampling : 4:2:0
    Bit depth : 8 bits
    Scan type : Progressive
    Bits/(Pixel*Frame) : 0.087
    Stream size : 1.67 GiB (75%)
    Writing library : x264 core 148 r2724 dbe0335
    Encoding settings : cabac=1 / ref=4 / deblock=1:0:0 / analyse=0x3:0x111 / me=umh / subme=10 / psy=1 / psy_rd=1.00:0.00 / mixed_ref=1 / me_range=120 / chroma_me=1 / trellis=2 / 8x8dct=1 / cqm=0 / deadzone=21,11 / fast_pskip=1 / chroma_qp_offset=-2 / threads=8 / lookahead_threads=2 / sliced_threads=0 / nr=0 / decimate=1 / interlaced=0 / bluray_compat=0 / stitchable=1 / constrained_intra=0 / bframes=16 / b_pyramid=2 / b_adapt=2 / b_bias=0 / direct=3 / weightb=1 / open_gop=0 / weightp=2 / keyint=240 / keyint_min=121 / scenecut=0 / intra_refresh=0 / rc_lookahead=240 / rc=crf / mbtree=1 / crf=16.0 / qcomp=0.50 / qpmin=6 / qpmax=51 / qpstep=4 / vbv_maxrate=20000 / vbv_bufsize=25000 / crf_max=0.0 / nal_hrd=vbr / filler=0 / ip_ratio=1.40 / aq=1:0.80
    Default : Yes
    Forced : No

    Audio #1
    ID : 2
    Format : E-AC-3
    Format/Info : Enhanced AC-3
    Commercial name : Dolby Digital Plus
    Codec ID : A_EAC3
    Duration : 55 min 6 s
    Bit rate mode : Constant
    Bit rate : 640 kb/s
    Channel(s) : 6 channels
    Channel layout : L R C LFE Ls Rs
    Sampling rate : 48.0 kHz
    Frame rate : 31.250 FPS (1536 SPF)
    Compression mode : Lossy
    Stream size : 252 MiB (11%)
    Language : Thai
    Service kind : Complete Main
    Default : Yes
    Forced : No

    Audio #2
    ID : 3
    Format : E-AC-3 JOC
    Format/Info : Enhanced AC-3 with Joint Object Coding
    Commercial name : Dolby Digital Plus with Dolby Atmos
    Codec ID : A_EAC3
    Duration : 55 min 7 s
    Bit rate mode : Constant
    Bit rate : 768 kb/s
    Channel(s) : 6 channels
    Channel layout : L R C LFE Ls Rs
    Sampling rate : 48.0 kHz
    Frame rate : 31.250 FPS (1536 SPF)
    Compression mode : Lossy
    Stream size : 303 MiB (13%)
    Language : Korean
    Service kind : Complete Main
    Default : No
    Forced : No
    Complexity index : 16
    Number of dynamic objects : 15
    Bed channel count : 1 channel
    Bed channel configuration : LFE

    Text #1
    ID : 4
    Format : UTF-8
    Codec ID : S_TEXT/UTF8
    Codec ID/Info : UTF-8 Plain Text
    Duration : 53 min 21 s
    Bit rate : 143 b/s
    Count of elements : 644
    Stream size : 56.1 KiB (0%)
    Language : Thai
    Default : Yes
    Forced : No

    Text #2
    ID : 5
    Format : PGS
    Muxing mode : zlib
    Codec ID : S_HDMV/PGS
    Codec ID/Info : Picture based subtitle format used on BDs/HD-DVDs
    Duration : 53 min 21 s
    Bit rate : 25.6 kb/s
    Count of elements : 1288
    Stream size : 9.76 MiB (0%)
    Language : Thai
    Default : No
    Forced : No




    Hellbound.2021.S01E06.END.1080p.NF.WEB-DL.DDP5.1.Atmos.x264.mkv
    http://www.filecondo.com/dl.php?f=31ad361MODl5
    Hellbound.2021.S01E05.1080p.NF.WEB-DL.DDP5.1.Atmos.x264.mkv
    http://www.filecondo.com/dl.php?f=P9cb831MODjN
    Hellbound.2021.S01E04.1080p.NF.WEB-DL.DDP5.1.Atmos.x264.mkv
    http://www.filecondo.com/dl.php?f=h891231MODgH
    Hellbound.2021.S01E03.1080p.NF.WEB-DL.DDP5.1.Atmos.x264.mkv
    http://www.filecondo.com/dl.php?f=Y1ba7c1MODdt
    Hellbound.2021.S01E02.1080p.NF.WEB-DL.DDP5.1.Atmos.x264.mkv
    http://www.filecondo.com/dl.php?f=Yb50971MODc5
    Hellbound.2021.S01E01.1080p.NF.WEB-DL.DDP5.1.Atmos.x264.mkv
    http://www.filecondo.com/dl.php?f=B7a9851MODaE

  2. The Following User Says Thank You to Duckload.us For This Useful Post:

    Nam1499 (04-18-2024)

  3. #2
    Senior Member
    สมัครเมื่อ
    Jul 2013
    โพสต์
    197
    Thanks
    0
    Thanked 0 Times in 0 Posts
    โหลดไมได้เหราครับ

  4. #3
    Senior Member
    สมัครเมื่อ
    Feb 2024
    โพสต์
    342
    Thanks
    310
    Thanked 0 Times in 0 Posts
    ข อ บ คุ ณ ม า ก ค่ ะ

+ ตอบกลับกระทู้

ข้อมูลกระทู้

Users Browsing this Thread

ในขณะนี้มี 1 ท่านดูกระทู้อยู่. (0 สมาชิกและ 1 ผู้เยี่ยมชม)

     

กฎการโพสต์ข้อความ

  • ท่าน ไม่สามารถ ตั้งกระทู้ใหม่ได้
  • ท่าน ไม่สามารถ ตอบกระทู้ได้
  • ท่าน ไม่สามารถ แนบไฟล์ได้
  • ท่าน ไม่สามารถ แก้ไขข้อความโพสต์ได้
  • BB code สถานะ เปิด
  • Smilies สถานะ เปิด
  • [IMG] สถานะ เปิด
  • HTML สถานะ ปิด