+ ตอบกลับกระทู้
สรุปผลการค้นหา 1 ถึง 5 จากทั้งหมด 5
  1. #1
    Administrators รูปส่วนตัว Duckload.us
    สมัครเมื่อ
    Dec 2010
    โพสต์
    133,190
    Thanks
    7
    Thanked 136,790 Times in 60,503 Posts

    Lightbulb [เกาหลี]-Search WWW เสิร์ชหัวใจให้เจอรัก Ep.01-16 [พากย์ไทย+ซับไทย]-WEB-DL.H.264.1080p. [Hi-def rip from Master]-[พากย์ไทย บรรยายไทย]



    แบทามี (อิมซูจอง) ผู้อำนวยการฝ่ายกลยุทธ์ของ ยูนิคอน บริษัทเสิร์ชเอนจินอันดับหนึ่งของเกาหลีใต้ ถูกบีบให้ลาออกจากงานในวัย 38 ปี เพราะเธอไปรู้เรื่องฉาวของนักการเมืองที่บริษัทมีส่ว นช่วยปกปิด แบทามีจึงเข้าไปร่วมงานกับ บาร์โร บริษัทคู่แข่ง ในตำแหน่งหัวหน้าทีมเฉพาะกิจที่มีเป้าหมายในการเอาชน ะและขึ้นเป็นบริษัทเสิร์ชเอนจินอันดับหนึ่ง ใขณะเดียวกันเธอก็ได้พบกับ พัคมอร์แกน (จางกียง) หนุ่มนักแต่งเพลงที่มีอายุน้อยกว่า ทั้งคู่ได้มีความสัมพันธ์วันไนท์สแตนด์ แต่เขากลับหลงรักเธอเข้าอย่างจัง

    Screenshot




    Video
    ID : 1
    Format : AVC
    Format/Info : Advanced Video Codec
    Format profile : [email protected]
    Format settings : CABAC / 3 Ref Frames
    Format settings, CABAC : Yes
    Format settings, Reference : 3 frames
    Codec ID : V_MPEG4/ISO/AVC
    Duration : 1 h 11 min
    Bit rate : 3 834 kb/s
    Width : 1 920 pixels
    Height : 1 080 pixels
    Display aspect ratio : 16:9
    Frame rate mode : Constant
    Frame rate : 23.976 (24000/1001) FPS
    Color space : YUV
    Chroma subsampling : 4:2:0
    Bit depth : 8 bits
    Scan type : Progressive
    Bits/(Pixel*Frame) : 0.077
    Stream size : 1.92 GiB (92%)
    Default : Yes
    Forced : No

    Audio #1
    ID : 2
    Format : AC-3
    Format/Info : Audio Coding 3
    Commercial name : Dolby Digital
    Codec ID : A_AC3
    Duration : 1 h 11 min
    Bit rate mode : Constant
    Bit rate : 192 kb/s
    Channel(s) : 2 channels
    Channel layout : L R
    Sampling rate : 48.0 kHz
    Frame rate : 31.250 FPS (1536 SPF)
    Compression mode : Lossy
    Delay relative to video : -83 ms
    Stream size : 98.3 MiB (5%)
    Language : Thai
    Service kind : Complete Main
    Default : Yes
    Forced : No

    Audio #2
    ID : 3
    Format : E-AC-3
    Format/Info : Enhanced AC-3
    Commercial name : Dolby Digital Plus
    Codec ID : A_EAC3
    Duration : 1 h 11 min
    Bit rate mode : Constant
    Bit rate : 128 kb/s
    Channel(s) : 2 channels
    Channel layout : L R
    Sampling rate : 48.0 kHz
    Frame rate : 31.250 FPS (1536 SPF)
    Compression mode : Lossy
    Delay relative to video : -83 ms
    Stream size : 65.5 MiB (3%)
    Language : Korean
    Service kind : Complete Main
    Default : No
    Forced : No

    Text #1
    ID : 4
    Format : UTF-8
    Codec ID : S_TEXT/UTF8
    Codec ID/Info : UTF-8 Plain Text
    Duration : 1 h 11 min
    Bit rate : 157 b/s
    Count of elements : 986
    Stream size : 82.3 KiB (0%)
    Title : Viu
    Language : Thai
    Default : Yes
    Forced : No

    Text #2
    ID : 5
    Format : PGS
    Muxing mode : zlib
    Codec ID : S_HDMV/PGS
    Codec ID/Info : Picture based subtitle format used on BDs/HD-DVDs
    Duration : 1 h 10 min
    Bit rate : 31.2 kb/s
    Count of elements : 1950
    Stream size : 15.8 MiB (1%)
    Title : Netflix
    Language : Thai
    Default : No
    Forced : No


    Search.http://WWW.E16.END.1080p.WEB-DL.DDP2...(Spark751).mkv
    http://www.filecondo.com/dl.php?f=L1e5da1MHCAv

    Search.WWW.E15.1080p.WEB-DL.DDP2.0.x264-(Spark751).mkv
    http://www.filecondo.com/dl.php?f=hfbca41MHCzt

    Search.WWW.E14.1080p.WEB-DL.DDP2.0.x264-(Spark751).mkv
    http://www.filecondo.com/dl.php?f=Qecad61MHCyv

    Search.WWW.E13.1080p.WEB-DL.DDP2.0.x264-(Spark751).mkv
    http://www.filecondo.com/dl.php?f=sc5ab21MHCxx

    Search.WWW.E12.1080p.WEB-DL.DDP2.0.x264-(Spark751).mkv
    http://www.filecondo.com/dl.php?f=f8b7451MHCwA

    Search.WWW.E11.1080p.WEB-DL.DDP2.0.x264-(Spark751).mkv
    http://www.filecondo.com/dl.php?f=Zf078e1MHCvC

    Search.WWW.E10.1080p.WEB-DL.DDP2.0.x264-(Spark751).mkv
    http://www.filecondo.com/dl.php?f=H05b631MHCuQ

    Search.WWW.E09.1080p.WEB-DL.DDP2.0.x264-(Spark751).mkv
    http://www.filecondo.com/dl.php?f=Vb76691MHCtQ

    Search.WWW.E08.1080p.WEB-DL.DDP2.0.x264-(Spark751).mkv
    http://www.filecondo.com/dl.php?f=c87d511MHCtq

    Search.WWW.E07.1080p.WEB-DL.DDP2.0.x264-(Spark751).mkv
    http://www.filecondo.com/dl.php?f=k3e9ca1MHCqL

    Search.WWW.E06.1080p.WEB-DL.DDP2.0.x264-(Spark751).mkv
    http://www.filecondo.com/dl.php?f=m5ff061MHCpO

    Search.WWW.E05.1080p.WEB-DL.DDP2.0.x264-(Spark751).mkv
    http://www.filecondo.com/dl.php?f=T61a721MHCoR

    Search.WWW.E04.1080p.WEB-DL.DDP2.0.x264-(Spark751).mkv
    http://www.filecondo.com/dl.php?f=547fda1MHCnQ

    Search.WWW.E03.1080p.WEB-DL.DDP2.0.x264-(Spark751).mkv
    http://www.filecondo.com/dl.php?f=pee07b1MHCmT

    Search.WWW.E02.1080p.WEB-DL.DDP2.0.x264-(Spark751).mkv
    http://www.filecondo.com/dl.php?f=a23be81MHClV

    Search.WWW.E01.1080p.WEB-DL.DDP2.0.x264-(Spark751).mkv
    http://www.filecondo.com/dl.php?f=Z806261MHCkX

  2. #2
    Senior Member
    สมัครเมื่อ
    Jul 2013
    โพสต์
    2,886
    Thanks
    0
    Thanked 0 Times in 0 Posts
    ขอบคุณครับ

  3. #3
    Member
    สมัครเมื่อ
    Jun 2018
    โพสต์
    49
    Thanks
    0
    Thanked 0 Times in 0 Posts
    ขอบคุณมากครับ

  4. #4
    Junior Member
    สมัครเมื่อ
    Jul 2015
    โพสต์
    14
    Thanks
    1
    Thanked 0 Times in 0 Posts
    ขอบคุณมากคะ

  5. #5
    Senior Member
    สมัครเมื่อ
    Aug 2012
    โพสต์
    364
    Thanks
    0
    Thanked 0 Times in 0 Posts
    ขอบคุณมากครับ

+ ตอบกลับกระทู้

ข้อมูลกระทู้

Users Browsing this Thread

ในขณะนี้มี 1 ท่านดูกระทู้อยู่. (0 สมาชิกและ 1 ผู้เยี่ยมชม)

     

กฎการโพสต์ข้อความ

  • ท่าน ไม่สามารถ ตั้งกระทู้ใหม่ได้
  • ท่าน ไม่สามารถ ตอบกระทู้ได้
  • ท่าน ไม่สามารถ แนบไฟล์ได้
  • ท่าน ไม่สามารถ แก้ไขข้อความโพสต์ได้
  • BB code สถานะ เปิด
  • Smilies สถานะ เปิด
  • [IMG] สถานะ เปิด
  • HTML สถานะ ปิด