Plot:

Tsuneo is a university student studying biology and in love with the ocean, avidly does recreational diving and working in a diving shop to fulfill his dream of diving abroad. One day an unexpected encounter with Josee, a sullen and demanding disabled young woman will take them through a journey that is compassionate, inspirational, loving, and filled with child-like innocence. Written by Aldi Trimukti Hanif






Josee, the Tiger and the Fish



Rating: 7.9/10 Year: 2020 Genres: Animation / Drama / Romance Runtime: 99 min Language: Japanese Director: Kรดtarรด Tamura Writers: Seiko Tanabe / Sayaka Kuwamura Cast: Kaya Kiyohara / Taishi Nakagawa / Matsutera Chiemiโ€ฆ

josee to tora to sakana-tachi (2021)

ด้วยความฝันที่จะไปดำน้ำในต่างประเทศ Tsuneo(ซึเนโอะ) นักศึกษามหาวิทยาลัยได้งานช่วย Josee(โจเซ่) ศิลปินไม่ค่อยออกจากบ้านแต่เต็มเปี่ยมด้วยจินตนาการซ ึ่งพาเธอผจญภัยไปไกลกว่ารถเข็นของเธอ
ทั้งสองพบกันเมื่อยายของโชเซพาเธอออกไปเดินเล่นตอนเย ็น แต่เมื่อโชคชะตาหันหลังให้กับพวกเขา ผลักดันกันไปยังสถานที่ที่พวกเขาไม่เคยคิดว่าจะเป็นไ ปได้ และจุดประกายความรักที่คู่ควรกับนวนิยาย

[Alphabet-Works] Josee to Tora to Sakana-tachi (Hard Sub 1920x804 DTS 5.1)

Format : Matroska
Format version : Version 4
File size : 5.42 GiB
Duration : 1 h 38 min
Overall bit rate mode : Variable
Overall bit rate : 7 898 kb/s
Encoded date : UTC 2021-09-28 12:52:19
Writing application : mkvmerge v60.0.0 ('Are We Copies?') 64-bit
Writing library : libebml v1.4.2 + libmatroska v1.6.4

Video
ID : 1
Format : AVC
Format/Info : Advanced Video Codec
Format profile : [email protected]
Format settings : CABAC / 1 Ref Frames
Format settings, CABAC : Yes
Format settings, Reference : 1 frame
Codec ID : V_MPEG4/ISO/AVC
Duration : 1 h 38 min
Bit rate mode : Variable
Bit rate : 2 272 kb/s
Maximum bit rate : 2 000 kb/s
Width : 1 930 pixels
Height : 804 pixels
Display aspect ratio : 2.40:1
Frame rate mode : Constant
Frame rate : 23.976 (24000/1001) FPS
Color space : YUV
Chroma subsampling : 4:2:0
Bit depth : 8 bits
Scan type : Progressive
Bits/(Pixel*Frame) : 0.061
Stream size : 1.56 GiB (29%)
Title : Alphabet-Works
Language : Thai
Default : Yes
Forced : No

Audio #1
ID : 2
Format : DTS XLL
Format/Info : Digital Theater Systems
Commercial name : DTS-HD Master Audio
Codec ID : A_DTS
Duration : 1 h 38 min
Bit rate mode : Variable
Bit rate : 1 952 kb/s
Channel(s) : 2 channels
Channel layout : L R
Sampling rate : 48.0 kHz
Frame rate : 93.750 FPS (512 SPF)
Bit depth : 24 bits
Compression mode : Lossless
Stream size : 1.34 GiB (25%)
Title : 2.0
Language : Japanese
Default : Yes
Forced : No

Audio #2
ID : 3
Format : DTS XLL
Format/Info : Digital Theater Systems
Commercial name : DTS-HD Master Audio
Codec ID : A_DTS
Duration : 1 h 38 min
Bit rate mode : Variable
Bit rate : 3 669 kb/s
Channel(s) : 6 channels
Channel layout : C L R Ls Rs LFE
Sampling rate : 48.0 kHz
Frame rate : 93.750 FPS (512 SPF)
Bit depth : 24 bits
Compression mode : Lossless
Stream size : 2.52 GiB (46%)
Title : 5.1
Language : Japanese
Default : Yes
Forced : No

Menu
00:00:00.000 : Avant
00:02:25.520 : Part A
00:14:01.674 : Part B
00:26:55.322 : Part C
00:38:08.327 : Part D
00:48:01.461 : Part E
01:00:20.116 : Part F
01:12:06.989 : Part G
01:21:10.699 : Part H
01:32:32.338 : ED
01:37:18.624 : END



http://www.filecondo.com/dl.php?f=z415491MJPZJ