เอ็ดดี้ บร็อก พยายามจุดประกายไฟให้กับอาชีพสื่อมวลชนของเขา ด้วยการดั้นด้นเข้าไปสัมภาษณ์ฆาตกรต่อเนื่องชื่อดัง เคลตัส คาซาดี้ ชายผู้ที่กลายมาเป็นร่างอวตารให้กับ คาร์เนจ สิ่งมีชีวิตจากต่างดาวที่แอบลักลอบเข้ามาแฝงตัวอยู่บ นโลกใบนี้ และเรื่องไม่คาดฝันก็ได้เกิดขึ้น เมื่อเคสตัสได้ก่อเหตุแหกคุก หลังจากที่การรับโทษประหารชีวิตของเขาล้มเหลว


Format : Matroska
Format version : Version 4
File size : 4.30 GiB
Duration : 1 h 37 min
Overall bit rate : 6 313 kb/s
Encoded date : UTC 2021-11-24 11:58:58
Writing application : mkvmerge v63.0.0 ('Everything') 64-bit
Writing library : libebml v1.4.2 + libmatroska v1.6.4

Video
ID : 1
Format : AVC
Format/Info : Advanced Video Codec
Format profile : [email protected]
Format settings : CABAC / 3 Ref Frames
Format settings, CABAC : Yes
Format settings, Reference : 3 frames
Codec ID : V_MPEG4/ISO/AVC
Duration : 1 h 37 min
Bit rate : 5 651 kb/s
Width : 1 920 pixels
Height : 1 036 pixels
Display aspect ratio : 1.85:1
Frame rate mode : Constant
Frame rate : 23.976 (24000/1001) FPS
Color space : YUV
Chroma subsampling : 4:2:0
Bit depth : 8 bits
Scan type : Progressive
Bits/(Pixel*Frame) : 0.118
Stream size : 3.85 GiB (90%)
Language : English
Default : Yes
Forced : No
Color range : Limited
Color primaries : BT.709
Transfer characteristics : BT.709
Matrix coefficients : BT.709

Audio
ID : 2
Format : E-AC-3
Format/Info : Enhanced AC-3
Commercial name : Dolby Digital Plus
Codec ID : A_EAC3
Duration : 1 h 37 min
Bit rate mode : Constant
Bit rate : 640 kb/s
Channel(s) : 6 channels
Channel layout : L R C LFE Ls Rs
Sampling rate : 48.0 kHz
Frame rate : 31.250 FPS (1536 SPF)
Compression mode : Lossy
Stream size : 447 MiB (10%)
Title : E-AC3 English
Language : English
Service kind : Complete Main
Default : Yes
Forced : No

Text #1
ID : 3
Format : VobSub
Muxing mode : zlib
Codec ID : S_VOBSUB
Codec ID/Info : Picture based subtitle format used on DVDs
Duration : 1 h 27 min
Bit rate : 11.5 kb/s
Count of elements : 1167
Stream size : 7.21 MiB (0%)
Title : Sub Thai 1080p
Language : Thai
Default : No
Forced : No

Text #2
ID : 4
Format : UTF-8
Codec ID : S_TEXT/UTF8
Codec ID/Info : UTF-8 Plain Text
Duration : 1 h 27 min
Bit rate : 117 b/s
Count of elements : 1167
Stream size : 75.2 KiB (0%)
Title : Sub Thai SRT
Language : Thai
Default : No
Forced : No

Text #3
ID : 5
Format : PGS
Muxing mode : zlib
Codec ID : S_HDMV/PGS
Codec ID/Info : Picture based subtitle format used on BDs/HD-DVDs
Duration : 1 h 27 min
Bit rate : 34.7 kb/s
Count of elements : 2334
Stream size : 21.8 MiB (0%)
Title : Sub Thai PGS
Language : Thai
Default : Yes
Forced : No

Text #4
ID : 6
Format : UTF-8
Codec ID : S_TEXT/UTF8
Codec ID/Info : UTF-8 Plain Text
Duration : 1 h 35 min
Bit rate : 60 b/s
Count of elements : 1495
Stream size : 42.3 KiB (0%)
Title : Sub English SRT
Language : English
Default : No
Forced : No






บรรยายไทย - อนันต์ โพธิสูง

Download:filecondo
http://www.filecondo.com/dl.php?f=f83e811MQd3E
Download:cornfile
https://www.cornfile.com/atzz0d0ot8wx