+ ตอบกลับกระทู้
สรุปผลการค้นหา 1 ถึง 4 จากทั้งหมด 4
  1. #1
    Administrators รูปส่วนตัว Duckload.us
    สมัครเมื่อ
    Dec 2010
    โพสต์
    133,723
    Thanks
    7
    Thanked 137,859 Times in 60,869 Posts

    Thumbs up [ฝรั่ง] Free Guy (2021) ขอสักทีพี่จะเป็นฮีโร่ [พากย์:อังกฤษ/ไทย มาสเตอร์][SUB:ไทย/อังกฤษ][1080p]



    เรื่องราวของพนักงานแบงค์ผู้โดดเดี่ยวที่ได้ค้นพบว่า จริง ๆ แล้วเขาเป็นตัวละครพื้นฐานในโลกของวิดีโอเกมที่เรียก ว่า Free City เขาทำหน้าที่คอยขัดขวางผู้สร้างเกมที่กำลังจะจบมัน พร้อมความช่วยเหลือของอวตารตัวหนึ่ง


    Format : Matroska
    Format version : Version 4
    File size : 8.40 GiB
    Duration : 1 h 55 min
    Overall bit rate : 10.5 Mb/s
    Movie name : Free.Guy.2021.1080p.BluRay.H264.AAC.DTS_©GOLD CUP™_WWW.TT-TORRENT.COM
    Video
    ID : 1
    Format : AVC
    Format/Info : Advanced Video Codec
    Format profile : [email protected]
    Format settings : CABAC / 4 Ref Frames
    Format settings, CABAC : Yes
    Format settings, Reference frames : 4 frames
    Codec ID : V_MPEG4/ISO/AVC
    Duration : 1 h 54 min
    Bit rate : 2 500 kb/s
    Width : 1 920 pixels
    Height : 804 pixels
    Display aspect ratio : 2.40:1
    Frame rate mode : Constant
    Frame rate : 23.976 (23976/1000) FPS
    Color space : YUV
    Chroma subsampling : 4:2:0
    Bit depth : 8 bits
    Scan type : Progressive
    Bits/(Pixel*Frame) : 0.068
    Stream size : 2.01 GiB (24%)
    Title : Free.Guy.2021.1080p.BluRay.H264.AAC.DTS_©GOLD CUP™
    Writing library : x264 core 152 r2851M ba24899
    Language : English
    Default : Yes
    Forced : No

    Audio #1
    ID : 2
    Format : AAC LC
    Format/Info : Advanced Audio Codec Low Complexity
    Codec ID : A_AAC-2
    Duration : 1 h 54 min
    Bit rate : 224 kb/s
    Channel(s) : 6 channels
    Channel layout : C L R Ls Rs LFE
    Sampling rate : 48.0 kHz
    Frame rate : 46.875 FPS (1024 SPF)
    Compression mode : Lossy
    Delay relative to video : -43 ms
    Stream size : 184 MiB (2%)
    Title : En.AAC_224 kbs.6 channels
    Language : English
    Default : Yes
    Forced : No

    Audio #2
    ID : 3
    Format : AAC LC
    Format/Info : Advanced Audio Codec Low Complexity
    Codec ID : A_AAC-2
    Duration : 1 h 55 min
    Bit rate : 369 kb/s
    Channel(s) : 6 channels
    Channel layout : C L R Ls Rs LFE
    Sampling rate : 44.1 kHz
    Frame rate : 43.066 FPS (1024 SPF)
    Compression mode : Lossy
    Delay relative to video : -43 ms
    Stream size : 304 MiB (4%)
    Title : Th.AAC_369 kbs.6 channels
    Language : Thai
    Default : Yes
    Forced : No

    Audio #3
    ID : 4
    Format : DTS
    Format/Info : Digital Theater Systems
    Codec ID : A_DTS
    Duration : 1 h 54 min
    Bit rate mode : Constant
    Bit rate : 3 646 kb/s
    Channel(s) : 6 channels
    Channel layout : C L R Ls Rs LFE
    Sampling rate : 44.1 kHz
    Frame rate : 43.066 FPS (1024 SPF)
    Bit depth : 16 bits
    Compression mode : Lossy
    Delay relative to video : -43 ms
    Stream size : 2.93 GiB (35%)
    Title : En.DTS.5.1_Sample Rate 44100
    Language : English
    Default : Yes
    Forced : No

    Audio #4
    ID : 5
    Format : DTS
    Format/Info : Digital Theater Systems
    Codec ID : A_DTS
    Duration : 1 h 55 min
    Bit rate mode : Constant
    Bit rate : 3 646 kb/s
    Channel(s) : 6 channels
    Channel layout : C L R Ls Rs LFE
    Sampling rate : 44.1 kHz
    Frame rate : 43.066 FPS (1024 SPF)
    Bit depth : 16 bits
    Compression mode : Lossy
    Delay relative to video : -43 ms
    Stream size : 2.93 GiB (35%)
    Title : Th.DTS.5.1_Sample Rate 44100
    Language : Thai
    Default : Yes
    Forced : No

    Text #1
    ID : 6
    Format : PGS
    Muxing mode : zlib
    Codec ID : S_HDMV/PGS
    Codec ID/Info : Picture based subtitle format used on BDs/HD-DVDs
    Duration : 1 h 54 min
    Bit rate : 34.6 kb/s
    Count of elements : 3792
    Stream size : 28.3 MiB (0%)
    Title : Th.2.98.88.White
    Language : Thai
    Default : Yes
    Forced : No

    Text #2
    ID : 7
    Format : PGS
    Muxing mode : zlib
    Codec ID : S_HDMV/PGS
    Codec ID/Info : Picture based subtitle format used on BDs/HD-DVDs
    Duration : 31 s 88 ms
    Bit rate : 32.5 kb/s
    Count of elements : 14
    Stream size : 123 KiB (0%)
    Title : English-Forced
    Language : English
    Default : No
    Forced : Yes

    Text #3
    ID : 8
    Format : PGS
    Muxing mode : zlib
    Codec ID : S_HDMV/PGS
    Codec ID/Info : Picture based subtitle format used on BDs/HD-DVDs
    Duration : 1 h 45 min
    Bit rate : 48.6 kb/s
    Count of elements : 3806
    Stream size : 36.7 MiB (0%)
    Title : EN.110.2.83.Yellow
    Language : English
    Default : No
    Forced : No

    Text #4
    ID : 9
    Format : PGS
    Muxing mode : zlib
    Codec ID : S_HDMV/PGS
    Codec ID/Info : Picture based subtitle format used on BDs/HD-DVDs
    Duration : 1 h 45 min
    Bit rate : 56.7 kb/s
    Count of elements : 4272
    Stream size : 42.9 MiB (0%)
    Title : EN.SDH.110.2.83.Oreng
    Language : English
    Default : No
    Forced : No





    Download:filecondo
    http://www.filecondo.com/dl.php?f=8991561MSLtk
    Download:cornfile
    https://www.cornfile.com/i0ion3svebzo

  2. The Following 7 Users Say Thank You to Duckload.us For This Useful Post:

    bigbang06 (12-03-2021), jackjangri (12-04-2021), Jodz14 (01-02-2022), kappa (12-24-2021), noi54 (12-04-2021), Tellmon (12-03-2021), Wesker_TOT (12-03-2021)

  3. #2
    Senior Member
    สมัครเมื่อ
    Dec 2013
    โพสต์
    3,423
    Thanks
    5,326
    Thanked 0 Times in 0 Posts
    ขอบคุณครับ...

  4. #3
    Senior Member
    สมัครเมื่อ
    Jun 2011
    โพสต์
    364
    Thanks
    516
    Thanked 40 Times in 29 Posts
    ขอบคุณครับ...

  5. #4
    Senior Member
    สมัครเมื่อ
    Jul 2013
    โพสต์
    3,002
    Thanks
    0
    Thanked 0 Times in 0 Posts
    ขอบคุณครับ

+ ตอบกลับกระทู้

ข้อมูลกระทู้

Users Browsing this Thread

ในขณะนี้มี 1 ท่านดูกระทู้อยู่. (0 สมาชิกและ 1 ผู้เยี่ยมชม)

     

กฎการโพสต์ข้อความ

  • ท่าน ไม่สามารถ ตั้งกระทู้ใหม่ได้
  • ท่าน ไม่สามารถ ตอบกระทู้ได้
  • ท่าน ไม่สามารถ แนบไฟล์ได้
  • ท่าน ไม่สามารถ แก้ไขข้อความโพสต์ได้
  • BB code สถานะ เปิด
  • Smilies สถานะ เปิด
  • [IMG] สถานะ เปิด
  • HTML สถานะ ปิด